File Size412.3 MB (432,280,734 bytes)
DownloadAnonFiles | ClickNUpload | DropAPK | Free | MultiUp
  • BdUpload
  • DownAce
  • Fichier
  • FileCloud
  • Filerio
  • FilesCdn
  • IndiShare
  • Kbagi
  • Turbobit
  • UpToBox
  • Uppit
| ZippyShare
Sendspace: Part1, Part2
HashesCRC32: 2CA3640D, MD5: A37CD9253382756E37052F16CE350CC0, SHA1: 7FC5B33766806EA6D2AFF40A9135D0EB6A125A1B, SHA256: 48E3D323857116580604D4535421D9302FFF93690003270F6B8B90AEB072CA06, ED2K: FFFB9A89E6F9AEB4B44B4C8E1CADE3D0
Screenshots
screenshotscreenshotscreenshotscreenshotscreenshot
SubtitlesAll Attachments | eng [ASS]
Additional Info
General
Unique ID                                : 161068379262018003125165156573208747524 (0x792CA437794F6E74135618A118219E04)
Complete name                            : [DKB] Majo no Tabitabi - S01E03 [1080p][H.265 10bit].mkv
Format                                   : Matroska
Format version                           : Version 4
File size                                : 412 MiB
Duration                                 : 23 min 50 s
Overall bit rate                         : 2 418 kb/s
Writing application                      : Lavf57.83.100
Writing library                          : Lavf57.83.100
ErrorDetectionType                       : Per level 1
Attachments                              : OpenSans-ExtraBoldItalic.ttf / OpenSans-Italic.ttf / OpenSans-Light.ttf / OpenSans-LightItalic.ttf / OpenSans-Regular.ttf / OpenSans-Semibold.ttf / OpenSans-SemiboldItalic.ttf / OpenSans-Bold.ttf / OpenSans-BoldItalic.ttf / OpenSans-ExtraBold.ttf

Video
ID                                       : 1
Format                                   : HEVC
Format/Info                              : High Efficiency Video Coding
Format profile                           : Main 10@L4@Main
Codec ID                                 : V_MPEGH/ISO/HEVC
Duration                                 : 23 min 50 s
Bit rate                                 : 7 326 kb/s
Width                                    : 1 920 pixels
Height                                   : 1 080 pixels
Display aspect ratio                     : 16:9
Frame rate mode                          : Constant
Frame rate                               : 23.976 (23976/1000) FPS
Original frame rate                      : 23.976 (24000/1001) FPS
Color space                              : YUV
Chroma subsampling                       : 4:2:0
Bit depth                                : 10 bits
Bits/(Pixel*Frame)                       : 0.147
Stream size                              : 1.22 GiB
Title                                    : [DKB]
Writing library                          : DKB x265
Default                                  : Yes
Forced                                   : No

Audio
ID                                       : 2
Format                                   : AAC LC
Format/Info                              : Advanced Audio Codec Low Complexity
Codec ID                                 : A_AAC-2
Duration                                 : 23 min 50 s
Bit rate                                 : 253 kb/s
Channel(s)                               : 2 channels
Channel layout                           : L R
Sampling rate                            : 48.0 kHz
Frame rate                               : 46.875 FPS (1024 SPF)
Compression mode                         : Lossy
Delay relative to video                  : -42 ms
Stream size                              : 43.2 MiB (10%)
Language                                 : Japanese
Default                                  : Yes
Forced                                   : No

Text
ID                                       : 3
Format                                   : ASS
Codec ID                                 : S_TEXT/ASS
Codec ID/Info                            : Advanced Sub Station Alpha
Duration                                 : 22 min 17 s
Bit rate                                 : 101 b/s
Count of elements                        : 317
Compression mode                         : Lossless
Stream size                              : 16.3 KiB (0%)
Writing library                          : Lavc57.107.100 ssa
Language                                 : English
Default                                  : Yes
Forced                                   : No
beta
Anime DDL+NZB mirror
Current Time: 16/04/2021 16:43



About/FAQs