File Size316.9 MB (332,316,218 bytes)
DownloadAnonFiles | ClickNUpload | DropAPK | Free | MultiUp
  • BdUpload
  • DownAce
  • Fichier
  • FileCloud
  • Filerio
  • FilesCdn
  • IndiShare
  • Kbagi
  • Turbobit
  • UpToBox
  • Uppit
| SolidFiles | ZippyShare
HashesCRC32: 51ADDB6C, MD5: B67E3D374E11346567980179493AE6FD, SHA1: 7E63506949C973FB0E65AB8EB55EEBDCECEFB621, SHA256: 0DDA2E41C4DDD6D575FA774415C7ABE8743F283F89E05F457CE411E62A19B44E, ED2K: 699F5F0BD945E7B024E7A2AE572FFEEF
Screenshots
screenshotscreenshotscreenshotscreenshotscreenshot
SubtitlesAll Attachments | English (US) [eng, ASS]
Additional Info
General
Unique ID                                : 13042429318966989833820238731338994749 (0x9CFE16994DAAEA5EF94301F76FE543D)
Complete name                            : [DKB] Log Horizon - Entaku Houkai - S03E02 [1080p][HEVC-265 10bit][Eng-Subs].mkv
Format                                   : Matroska
Format version                           : Version 4
File size                                : 317 MiB
Duration                                 : 24 min 37 s
Overall bit rate                         : 1 800 kb/s
Writing application                      : Lavf57.83.100
Writing library                          : Lavf57.83.100
ErrorDetectionType                       : Per level 1
Attachments                              : OpenSans-Semibold.ttf

Video
ID                                       : 1
Format                                   : HEVC
Format/Info                              : High Efficiency Video Coding
Format profile                           : Main 10@L4@Main
Codec ID                                 : V_MPEGH/ISO/HEVC
Duration                                 : 24 min 37 s
Bit rate                                 : 7 838 kb/s
Width                                    : 1 920 pixels
Height                                   : 1 080 pixels
Display aspect ratio                     : 16:9
Frame rate mode                          : Constant
Frame rate                               : 23.976 (23976/1000) FPS
Original frame rate                      : 23.976 (24000/1001) FPS
Color space                              : YUV
Chroma subsampling                       : 4:2:0
Bit depth                                : 10 bits
Bits/(Pixel*Frame)                       : 0.158
Stream size                              : 1.35 GiB
Title                                    : [DKB Team]
Writing library                          : x265 3.2.1+1-d8c36a94gebe:[Windows][GCC 9.2.0][64 bit] 10bit
Default                                  : Yes
Forced                                   : No

Audio
ID                                       : 2
Format                                   : AAC LC
Format/Info                              : Advanced Audio Codec Low Complexity
Codec ID                                 : A_AAC-2
Duration                                 : 24 min 37 s
Bit rate                                 : 253 kb/s
Channel(s)                               : 2 channels
Channel layout                           : L R
Sampling rate                            : 48.0 kHz
Frame rate                               : 46.875 FPS (1024 SPF)
Compression mode                         : Lossy
Delay relative to video                  : -42 ms
Stream size                              : 44.6 MiB (14%)
Language                                 : Japanese
Default                                  : Yes
Forced                                   : No

Text
ID                                       : 3
Format                                   : ASS
Codec ID                                 : S_TEXT/ASS
Codec ID/Info                            : Advanced Sub Station Alpha
Duration                                 : 24 min 35 s
Bit rate                                 : 128 b/s
Count of elements                        : 353
Compression mode                         : Lossless
Stream size                              : 22.9 KiB (0%)
Title                                    : English (US)
Writing library                          : Lavc57.107.100 ssa
Language                                 : English
Default                                  : Yes
Forced                                   : No
beta
Anime DDL+NZB mirror
Current Time: 16/04/2021 17:40



About/FAQs