[DKB] Lapis ReLiGHTs - 05 [1080p].mkv


File Size367.9 MB (385,768,456 bytes)
DownloadAnonFiles | ClickNUpload | DropAPK | Free | MultiUp
  • BdUpload
  • DownAce
  • Fichier
  • FileCloud
  • Filerio
  • FilesCdn
  • IndiShare
  • Kbagi
  • Turbobit
  • UpToBox
  • Uppit
| SolidFiles | ZippyShare
Sendspace: Part1, Part2
HashesCRC32: B5AA7440, MD5: 061C039C49C26B9B21DC6C7BBFBFC855, SHA1: 1795C892504C4EC3D281378DFF02A08F9207824A, SHA256: C94F1E26D8EFBAADBBBA66C37C291EF251DACD75DC604DDCE5CB89D9689723EF, ED2K: 91766B839F11AEF690BB1482676B48C6
Screenshots
screenshotscreenshotscreenshotscreenshotscreenshot
SubtitlesAll Attachments | eng [ASS]
Additional Info
General
Unique ID                                : 110672648504228993314368011159985910466 (0x5342C6DAEA820F8D72B91CB13F9EF2C2)
Complete name                            : [DKB] Lapis ReLiGHTs - 05 [1080p].mkv
Format                                   : Matroska
Format version                           : Version 4
File size                                : 368 MiB
Duration                                 : 24 min 21 s
Overall bit rate                         : 2 112 kb/s
Writing application                      : Lavf57.83.100
Writing library                          : Lavf57.83.100
ErrorDetectionType                       : Per level 1

Video
ID                                       : 1
Format                                   : HEVC
Format/Info                              : High Efficiency Video Coding
Format profile                           : Main 10@L4@Main
Codec ID                                 : V_MPEGH/ISO/HEVC
Duration                                 : 24 min 21 s
Bit rate                                 : 7 367 kb/s
Width                                    : 1 920 pixels
Height                                   : 1 080 pixels
Display aspect ratio                     : 16:9
Frame rate mode                          : Constant
Frame rate                               : 23.976 (23976/1000) FPS
Original frame rate                      : 23.976 (24000/1001) FPS
Color space                              : YUV
Chroma subsampling                       : 4:2:0
Bit depth                                : 10 bits
Bits/(Pixel*Frame)                       : 0.148
Stream size                              : 1.25 GiB
Writing library                          : Lavc57.107.100 hevc_nvenc
Default                                  : Yes
Forced                                   : No

Audio
ID                                       : 2
Format                                   : AAC LC
Format/Info                              : Advanced Audio Codec Low Complexity
Codec ID                                 : A_AAC-2
Duration                                 : 24 min 21 s
Bit rate                                 : 253 kb/s
Channel(s)                               : 2 channels
Channel layout                           : L R
Sampling rate                            : 48.0 kHz
Frame rate                               : 46.875 FPS (1024 SPF)
Compression mode                         : Lossy
Delay relative to video                  : -42 ms
Stream size                              : 44.1 MiB (12%)
Language                                 : Japanese
Default                                  : Yes
Forced                                   : No

Text
ID                                       : 3
Format                                   : ASS
Codec ID                                 : S_TEXT/ASS
Codec ID/Info                            : Advanced Sub Station Alpha
Duration                                 : 21 min 52 s
Bit rate                                 : 101 b/s
Count of elements                        : 309
Compression mode                         : Lossless
Stream size                              : 15.6 KiB (0%)
Writing library                          : Lavc57.107.100 ssa
Language                                 : English
Default                                  : Yes
Forced                                   : No
beta
Anime DDL+NZB mirror
Current Time: 21/09/2020 17:07



About/FAQs