File Size566.0 MB (593,460,993 bytes)
DownloadClickNUpload | DownloadGG | DropAPK
MultiUp: Part1
  • BdUpload
  • DownAce
  • Fichier
  • FileCloud
  • Filerio
  • FilesCdn
  • IndiShare
  • Kbagi
  • Turbobit
  • UpToBox
  • Uppit
, Part2
  • BdUpload
  • DownAce
  • Fichier
  • FileCloud
  • Filerio
  • FilesCdn
  • IndiShare
  • Kbagi
  • Turbobit
  • UpToBox
  • Uppit

SolidFiles: Part1, Part2
ZippyShare: Part1, Part2
HashesCRC32: 100B3033, MD5: 8109471502B7687AEBD0E8CB3483B25D, SHA1: 737EB2E37578EDE203721671FB43F7205CB2B2F4, SHA256: D4FBB855D26F5C5215BB3E7858425F622F43AE47EF87C5B3C1CE437F6A790B4A, ED2K: CB44F0D0EB15BA73B442B453AE9E3CD2
Screenshots
screenshotscreenshotscreenshotscreenshotscreenshot
SubtitlesAll Attachments | English / English (US) [eng, ASS], Spanish (Latin American) / Español (América Latina [spa, ASS], Spanish / Español (España) [spa, ASS], French / Français (France) [fre, ASS], Portuguese (Brazilian) / Português (Brasil) [por, ASS], Arabic / العربية [ara, ASS], Italian / Italiano [ita, ASS], German / Deutsch [ger, ASS], Russian / Русский [rus, ASS]
Additional Info
General
Unique ID                                : 210667797910628769228590222180595943640 (0x9E7D245C2BCF595D93768B3BECAA48D8)
Complete name                            : [DKB] Kobayashi-san Chi no Maid Dragon S - S02E11 [1080p][HEVC-265 10bit][Multi-Subs].mkv
Format                                   : Matroska
Format version                           : Version 4
File size                                : 566 MiB
Duration                                 : 23 min 42 s
Overall bit rate                         : 3 339 kb/s
Writing application                      : Lavf59.4.101
Writing library                          : Lavf59.4.101
ErrorDetectionType                       : Per level 1
Attachments                              : AdobeArabic-Bold.otf / arial.ttf / arialbd.ttf / arialbi.ttf / comic.ttf / cour.ttf / tahoma.ttf / times.ttf / trebuc.ttf / verdana.ttf

Video
ID                                       : 1
Format                                   : HEVC
Format/Info                              : High Efficiency Video Coding
Format profile                           : Main 10@L5@Main
Codec ID                                 : V_MPEGH/ISO/HEVC
Duration                                 : 23 min 40 s
Bit rate                                 : 3 190 kb/s
Width                                    : 1 920 pixels
Height                                   : 1 080 pixels
Display aspect ratio                     : 16:9
Frame rate mode                          : Variable
Frame rate                               : 23.976 (23976/1000) FPS
Original frame rate                      : 23.976 (24000/1001) FPS
Color space                              : YUV
Chroma subsampling                       : 4:2:0
Bit depth                                : 10 bits
Bits/(Pixel*Frame)                       : 0.064
Stream size                              : 540 MiB (95%)
Writing library                          : x265 3.2.1+1-d8c36a94gebe:[Windows][GCC 9.2.0][64 bit] 10bit
Default                                  : Yes
Forced                                   : No
Color range                              : Limited

Audio
ID                                       : 2
Format                                   : AAC LC
Format/Info                              : Advanced Audio Codec Low Complexity
Codec ID                                 : A_AAC-2
Duration                                 : 23 min 40 s
Bit rate                                 : 128 kb/s
Channel(s)                               : 2 channels
Channel layout                           : L R
Sampling rate                            : 44.1 kHz
Frame rate                               : 43.066 FPS (1024 SPF)
Compression mode                         : Lossy
Stream size                              : 21.7 MiB (4%)
Language                                 : Japanese
Default                                  : Yes
Forced                                   : No

Text #1
ID                                       : 3
Format                                   : ASS
Codec ID                                 : S_TEXT/ASS
Codec ID/Info                            : Advanced Sub Station Alpha
Duration                                 : 23 min 40 s
Bit rate                                 : 189 b/s
Count of elements                        : 391
Compression mode                         : Lossless
Stream size                              : 32.8 KiB (0%)
Title                                    : English / English (US)
Writing library                          : Lavc59.5.100 ssa
Language                                 : English
Default                                  : Yes
Forced                                   : No

Text #2
ID                                       : 4
Format                                   : ASS
Codec ID                                 : S_TEXT/ASS
Codec ID/Info                            : Advanced Sub Station Alpha
Duration                                 : 23 min 40 s
Bit rate                                 : 161 b/s
Count of elements                        : 363
Compression mode                         : Lossless
Stream size                              : 28.0 KiB (0%)
Title                                    : Spanish (Latin American) / Español (América Latina
Writing library                          : Lavc59.5.100 ssa
Language                                 : Spanish
Default                                  : No
Forced                                   : No

Text #3
ID                                       : 5
Format                                   : ASS
Codec ID                                 : S_TEXT/ASS
Codec ID/Info                            : Advanced Sub Station Alpha
Duration                                 : 23 min 40 s
Bit rate                                 : 147 b/s
Count of elements                        : 341
Compression mode                         : Lossless
Stream size                              : 25.4 KiB (0%)
Title                                    : Spanish / Español (España)
Writing library                          : Lavc59.5.100 ssa
Language                                 : Spanish
Default                                  : No
Forced                                   : No

Text #4
ID                                       : 6
Format                                   : ASS
Codec ID                                 : S_TEXT/ASS
Codec ID/Info                            : Advanced Sub Station Alpha
Duration                                 : 23 min 40 s
Bit rate                                 : 163 b/s
Count of elements                        : 389
Compression mode                         : Lossless
Stream size                              : 28.3 KiB (0%)
Title                                    : French / Français (France)
Writing library                          : Lavc59.5.100 ssa
Language                                 : French
Default                                  : No
Forced                                   : No

Text #5
ID                                       : 7
Format                                   : ASS
Codec ID                                 : S_TEXT/ASS
Codec ID/Info                            : Advanced Sub Station Alpha
Duration                                 : 23 min 40 s
Bit rate                                 : 191 b/s
Count of elements                        : 387
Compression mode                         : Lossless
Stream size                              : 33.2 KiB (0%)
Title                                    : Portuguese (Brazilian) / Português (Brasil)
Writing library                          : Lavc59.5.100 ssa
Language                                 : Portuguese
Default                                  : No
Forced                                   : No

Text #6
ID                                       : 8
Format                                   : ASS
Codec ID                                 : S_TEXT/ASS
Codec ID/Info                            : Advanced Sub Station Alpha
Duration                                 : 23 min 40 s
Bit rate                                 : 221 b/s
Count of elements                        : 391
Compression mode                         : Lossless
Stream size                              : 38.4 KiB (0%)
Title                                    : Arabic / العربية
Writing library                          : Lavc59.5.100 ssa
Language                                 : Arabic
Default                                  : No
Forced                                   : No

Text #7
ID                                       : 9
Format                                   : ASS
Codec ID                                 : S_TEXT/ASS
Codec ID/Info                            : Advanced Sub Station Alpha
Duration                                 : 23 min 42 s
Bit rate                                 : 181 b/s
Count of elements                        : 402
Compression mode                         : Lossless
Stream size                              : 31.4 KiB (0%)
Title                                    : Italian / Italiano
Writing library                          : Lavc59.5.100 ssa
Language                                 : Italian
Default                                  : No
Forced                                   : No

Text #8
ID                                       : 10
Format                                   : ASS
Codec ID                                 : S_TEXT/ASS
Codec ID/Info                            : Advanced Sub Station Alpha
Duration                                 : 23 min 41 s
Bit rate                                 : 209 b/s
Count of elements                        : 411
Compression mode                         : Lossless
Stream size                              : 36.4 KiB (0%)
Title                                    : German / Deutsch
Writing library                          : Lavc59.5.100 ssa
Language                                 : German
Default                                  : No
Forced                                   : No

Text #9
ID                                       : 11
Format                                   : ASS
Codec ID                                 : S_TEXT/ASS
Codec ID/Info                            : Advanced Sub Station Alpha
Duration                                 : 23 min 41 s
Bit rate                                 : 269 b/s
Count of elements                        : 428
Compression mode                         : Lossless
Stream size                              : 46.7 KiB (0%)
Title                                    : Russian / Русский
Writing library                          : Lavc59.5.100 ssa
Language                                 : Russian
Default                                  : No
Forced                                   : No
beta
Anime DDL+NZB mirror
Current Time: 02/12/2021 15:21



About/FAQs

Discord