[DKB] Jujutsu Kaisen - 01 [1080p][H.265 10bit][Multi-Subs].mkv


File Size440.5 MB (461,941,414 bytes)
DownloadAnonFiles | ClickNUpload | DropAPK | Free | MultiUp
  • BdUpload
  • DownAce
  • Fichier
  • FileCloud
  • Filerio
  • FilesCdn
  • IndiShare
  • Kbagi
  • Turbobit
  • UpToBox
  • Uppit
| ZippyShare
Sendspace: Part1, Part2
HashesCRC32: CB0402FD, MD5: E8509C60C18D49326869DEB7C6F3E73B, SHA1: BC201B3D7A21A332E99B14F7CD6ADB76F6B79F15, SHA256: 2ECF236853E1216AB20C1E432AF28EB106875D3F5A326E2771D4AEF41DFED0FC, ED2K: 3DDF6CDCEA1C0FA61D7360EB4E6BE424
Screenshots
screenshotscreenshotscreenshotscreenshotscreenshot
SubtitlesAll Attachments | eng [ASS], Español (América Latina) [spa, ASS], spa [ASS], fre [ASS], ita [ASS], por [ASS], rus [ASS], ger [ASS], ara [ASS]
Additional Info
General
Unique ID                                : 263057983020969883412346767339483570197 (0xC5E71FE9C8D9D25AFFE3530D69702015)
Complete name                            : [DKB] Jujutsu Kaisen - 01 [1080p][H.265 10bit][Multi-Subs].mkv
Format                                   : Matroska
Format version                           : Version 4
File size                                : 441 MiB
Duration                                 : 23 min 57 s
Overall bit rate                         : 2 571 kb/s
Encoded date                             : UTC 2020-10-02 18:40:27
Writing application                      : mkvmerge v50.0.0 ('Awakenings') 64-bit
Writing library                          : libebml v1.4.0 + libmatroska v1.6.2 / Lavf57.83.100

Video
ID                                       : 1
Format                                   : HEVC
Format/Info                              : High Efficiency Video Coding
Format profile                           : Main 10@L4@Main
Codec ID                                 : V_MPEGH/ISO/HEVC
Duration                                 : 23 min 55 s
Bit rate                                 : 2 442 kb/s
Width                                    : 1 920 pixels
Height                                   : 1 080 pixels
Display aspect ratio                     : 16:9
Frame rate mode                          : Constant
Frame rate                               : 23.976 (24000/1001) FPS
Color space                              : YUV
Chroma subsampling                       : 4:2:0
Bit depth                                : 10 bits
Bits/(Pixel*Frame)                       : 0.049
Stream size                              : 418 MiB (95%)
Writing library                          : Lavc57.107.100 hevc_nvenc
Default                                  : Yes
Forced                                   : No

Audio
ID                                       : 2
Format                                   : AAC LC
Format/Info                              : Advanced Audio Codec Low Complexity
Codec ID                                 : A_AAC-2
Duration                                 : 23 min 55 s
Bit rate                                 : 128 kb/s
Channel(s)                               : 2 channels
Channel layout                           : L R
Sampling rate                            : 44.1 kHz
Frame rate                               : 43.066 FPS (1024 SPF)
Compression mode                         : Lossy
Stream size                              : 21.9 MiB (5%)
Language                                 : Japanese
Default                                  : Yes
Forced                                   : No

Text #1
ID                                       : 3
Format                                   : ASS
Codec ID                                 : S_TEXT/ASS
Codec ID/Info                            : Advanced Sub Station Alpha
Duration                                 : 23 min 53 s
Bit rate                                 : 196 b/s
Count of elements                        : 478
Compression mode                         : Lossless
Stream size                              : 34.3 KiB (0%)
Language                                 : English
Default                                  : Yes
Forced                                   : No

Text #2
ID                                       : 4
Format                                   : ASS
Codec ID                                 : S_TEXT/ASS
Codec ID/Info                            : Advanced Sub Station Alpha
Duration                                 : 23 min 53 s
Bit rate                                 : 164 b/s
Count of elements                        : 399
Compression mode                         : Lossless
Stream size                              : 28.8 KiB (0%)
Title                                    : Español (América Latina)
Language                                 : Spanish
Default                                  : No
Forced                                   : No

Text #3
ID                                       : 5
Format                                   : ASS
Codec ID                                 : S_TEXT/ASS
Codec ID/Info                            : Advanced Sub Station Alpha
Duration                                 : 23 min 53 s
Bit rate                                 : 151 b/s
Count of elements                        : 390
Compression mode                         : Lossless
Stream size                              : 26.5 KiB (0%)
Language                                 : Spanish
Default                                  : No
Forced                                   : No

Text #4
ID                                       : 6
Format                                   : ASS
Codec ID                                 : S_TEXT/ASS
Codec ID/Info                            : Advanced Sub Station Alpha
Duration                                 : 23 min 52 s
Bit rate                                 : 152 b/s
Count of elements                        : 391
Compression mode                         : Lossless
Stream size                              : 26.8 KiB (0%)
Language                                 : French
Default                                  : No
Forced                                   : No

Text #5
ID                                       : 7
Format                                   : ASS
Codec ID                                 : S_TEXT/ASS
Codec ID/Info                            : Advanced Sub Station Alpha
Duration                                 : 23 min 53 s
Bit rate                                 : 216 b/s
Count of elements                        : 465
Compression mode                         : Lossless
Stream size                              : 37.8 KiB (0%)
Language                                 : Italian
Default                                  : No
Forced                                   : No

Text #6
ID                                       : 8
Format                                   : ASS
Codec ID                                 : S_TEXT/ASS
Codec ID/Info                            : Advanced Sub Station Alpha
Duration                                 : 23 min 53 s
Bit rate                                 : 196 b/s
Count of elements                        : 487
Compression mode                         : Lossless
Stream size                              : 34.3 KiB (0%)
Language                                 : Portuguese
Default                                  : No
Forced                                   : No

Text #7
ID                                       : 9
Format                                   : ASS
Codec ID                                 : S_TEXT/ASS
Codec ID/Info                            : Advanced Sub Station Alpha
Duration                                 : 23 min 53 s
Bit rate                                 : 250 b/s
Count of elements                        : 492
Compression mode                         : Lossless
Stream size                              : 43.9 KiB (0%)
Language                                 : Russian
Default                                  : No
Forced                                   : No

Text #8
ID                                       : 10
Format                                   : ASS
Codec ID                                 : S_TEXT/ASS
Codec ID/Info                            : Advanced Sub Station Alpha
Duration                                 : 23 min 52 s
Bit rate                                 : 180 b/s
Count of elements                        : 449
Compression mode                         : Lossless
Stream size                              : 31.5 KiB (0%)
Language                                 : German
Default                                  : No
Forced                                   : No

Text #9
ID                                       : 11
Format                                   : ASS
Codec ID                                 : S_TEXT/ASS
Codec ID/Info                            : Advanced Sub Station Alpha
Duration                                 : 23 min 55 s
Bit rate                                 : 216 b/s
Count of elements                        : 459
Compression mode                         : Lossless
Stream size                              : 38.0 KiB (0%)
Language                                 : Arabic
Default                                  : No
Forced                                   : No
beta
Anime DDL+NZB mirror
Current Time: 12/05/2021 17:32



About/FAQs