[DKB] Haikyuu!! To the Top 2nd Season - S04E24 [1080p][H.265 10bit][Multi-Subs].mkv


File Size350.2 MB (367,263,723 bytes)
DownloadAnonFiles | ClickNUpload | DropAPK | Free | MultiUp
  • BdUpload
  • DownAce
  • Fichier
  • FileCloud
  • Filerio
  • FilesCdn
  • IndiShare
  • Kbagi
  • Turbobit
  • UpToBox
  • Uppit
| SolidFiles | ZippyShare
HashesCRC32: 7AACC8B3, MD5: E7E5B713B6C12129F7E8AAEA19A00A4C, SHA1: 93341248E39BCE96CE1953DCAC30816B7DE719CF, SHA256: 245ACB176D8B7804DBAD1BFC4BC249EFE07CF9FBE547C4A0E560BF89720EEE42, ED2K: E741F9A3FCC8B2725B22BF66AB03C577
Screenshots
screenshotscreenshotscreenshotscreenshotscreenshot
SubtitlesAll Attachments | English (US) / English (US) [eng, ASS], Spanish (Latin American) / Español (América Latina) [spa, ASS], Portuguese (Brazilian) / Português (Brasil) [por, ASS]
Additional Info
General
Unique ID                                : 70123335644240509191823783183637913869 (0x34C1436088F06C86F10FC69CB869A10D)
Complete name                            : [DKB] Haikyuu!! To the Top 2nd Season - S04E24 [1080p][H.265 10bit][Multi-Subs].mkv
Format                                   : Matroska
Format version                           : Version 4
File size                                : 350 MiB
Duration                                 : 23 min 58 s
Overall bit rate                         : 2 042 kb/s
Writing application                      : Lavf57.83.100
Writing library                          : Lavf57.83.100
ErrorDetectionType                       : Per level 1
Attachments                              : comic.ttf / trebuc.ttf / times.ttf / arial.ttf / verdana.ttf

Video
ID                                       : 1
Format                                   : HEVC
Format/Info                              : High Efficiency Video Coding
Format profile                           : Main 10@L4@Main
Codec ID                                 : V_MPEGH/ISO/HEVC
Duration                                 : 23 min 57 s
Bit rate                                 : 7 980 kb/s
Width                                    : 1 920 pixels
Height                                   : 1 080 pixels
Display aspect ratio                     : 16:9
Frame rate mode                          : Constant
Frame rate                               : 23.976 (24000/1001) FPS
Color space                              : YUV
Chroma subsampling                       : 4:2:0
Bit depth                                : 10 bits
Bits/(Pixel*Frame)                       : 0.161
Stream size                              : 1.34 GiB
Title                                    : [DKB Team]
Writing library                          : x265 3.2.1+1-d8c36a94gebe:[Windows][GCC 9.2.0][64 bit] 10bit
Default                                  : Yes
Forced                                   : No

Audio
ID                                       : 2
Format                                   : AAC LC
Format/Info                              : Advanced Audio Codec Low Complexity
Codec ID                                 : A_AAC-2
Duration                                 : 23 min 57 s
Bit rate                                 : 128 kb/s
Channel(s)                               : 2 channels
Channel layout                           : L R
Sampling rate                            : 44.1 kHz
Frame rate                               : 43.066 FPS (1024 SPF)
Compression mode                         : Lossy
Stream size                              : 21.9 MiB (6%)
Language                                 : Japanese
Default                                  : Yes
Forced                                   : No

Text #1
ID                                       : 3
Format                                   : ASS
Codec ID                                 : S_TEXT/ASS
Codec ID/Info                            : Advanced Sub Station Alpha
Duration                                 : 23 min 56 s
Bit rate                                 : 140 b/s
Count of elements                        : 329
Compression mode                         : Lossless
Stream size                              : 24.4 KiB (0%)
Title                                    : English (US) / English (US)
Writing library                          : Lavc57.107.100 ssa
Language                                 : English
Default                                  : Yes
Forced                                   : No

Text #2
ID                                       : 4
Format                                   : ASS
Codec ID                                 : S_TEXT/ASS
Codec ID/Info                            : Advanced Sub Station Alpha
Duration                                 : 23 min 58 s
Bit rate                                 : 106 b/s
Count of elements                        : 292
Compression mode                         : Lossless
Stream size                              : 17.6 KiB (0%)
Title                                    : Spanish (Latin American) / Español (América Latina)
Writing library                          : Lavc57.107.100 ssa
Language                                 : Spanish
Default                                  : No
Forced                                   : No

Text #3
ID                                       : 5
Format                                   : ASS
Codec ID                                 : S_TEXT/ASS
Codec ID/Info                            : Advanced Sub Station Alpha
Duration                                 : 23 min 56 s
Bit rate                                 : 137 b/s
Count of elements                        : 329
Compression mode                         : Lossless
Stream size                              : 23.9 KiB (0%)
Title                                    : Portuguese (Brazilian) / Português (Brasil)
Writing library                          : Lavc57.107.100 ssa
Language                                 : Portuguese
Default                                  : No
Forced                                   : No
beta
Anime DDL+NZB mirror
Current Time: 02/12/2021 08:53



About/FAQs

Discord