File Size379.1 MB (397,544,055 bytes)
DownloadAnonFiles | ClickNUpload | DropAPK | Free | MultiUp
  • BdUpload
  • DownAce
  • Fichier
  • FileCloud
  • Filerio
  • FilesCdn
  • IndiShare
  • Kbagi
  • Turbobit
  • UpToBox
  • Uppit
| SolidFiles | ZippyShare
Sendspace: Part1, Part2
HashesCRC32: 4EAE9A76, MD5: E511C324F238AEA4F56232112170AC60, SHA1: 04F9E4B9C40DCF35480E7EF844C379AA30F6AF5D, SHA256: 1F0D79D3907D4CAF3A0F5F65E3B71F852ADE4F5F8F0D249886C66C8C125B2FBA, ED2K: 2A6B94E21F8A458146E2599333F33E68
Screenshots
screenshotscreenshotscreenshotscreenshotscreenshot
SubtitlesAll Attachments | eng [ASS]
Additional Info
General
Unique ID                                : 253485853840457085485186803344463502914 (0xBEB39981F0DC88E1AD43840CE22E1E42)
Complete name                            : [DKB] Enen no Shouboutai S2 - 05 [1080p].mkv
Format                                   : Matroska
Format version                           : Version 4
File size                                : 379 MiB
Duration                                 : 24 min 32 s
Overall bit rate                         : 2 160 kb/s
Writing application                      : Lavf57.83.100
Writing library                          : Lavf57.83.100
ErrorDetectionType                       : Per level 1

Video
ID                                       : 1
Format                                   : HEVC
Format/Info                              : High Efficiency Video Coding
Format profile                           : Main 10@L4@Main
Codec ID                                 : V_MPEGH/ISO/HEVC
Duration                                 : 24 min 27 s
Bit rate                                 : 7 990 kb/s
Width                                    : 1 920 pixels
Height                                   : 1 080 pixels
Display aspect ratio                     : 16:9
Frame rate mode                          : Constant
Frame rate                               : 23.976 (24000/1001) FPS
Color space                              : YUV
Chroma subsampling                       : 4:2:0
Bit depth                                : 10 bits
Bits/(Pixel*Frame)                       : 0.161
Stream size                              : 1.36 GiB
Writing library                          : Lavc57.107.100 hevc_nvenc
Default                                  : Yes
Forced                                   : No

Audio
ID                                       : 2
Format                                   : AAC LC
Format/Info                              : Advanced Audio Codec Low Complexity
Codec ID                                 : A_AAC-2
Duration                                 : 24 min 27 s
Bit rate                                 : 128 kb/s
Channel(s)                               : 2 channels
Channel layout                           : L R
Sampling rate                            : 44.1 kHz
Frame rate                               : 43.066 FPS (1024 SPF)
Compression mode                         : Lossy
Stream size                              : 22.4 MiB (6%)
Language                                 : Japanese
Default                                  : Yes
Forced                                   : No

Text
ID                                       : 3
Format                                   : ASS
Codec ID                                 : S_TEXT/ASS
Codec ID/Info                            : Advanced Sub Station Alpha
Duration                                 : 24 min 32 s
Bit rate                                 : 96 b/s
Count of elements                        : 284
Compression mode                         : Lossless
Stream size                              : 17.3 KiB (0%)
Writing library                          : Lavc57.107.100 ssa
Language                                 : English
Default                                  : Yes
Forced                                   : No
beta
Anime DDL+NZB mirror
Current Time: 21/09/2020 15:09



About/FAQs