File Size3.497 GB (3,754,364,327 bytes)
DownloadAnonFiles: Part1, Part2, Part3, Part4, Part5, Part6, Part7, Part8
FileWinds: Part1, Part2, Part3, Part4, Part5
Jheberg: Part1, Part2, Part3, Part4
MirrorStack: Part1, Part2, Part3, Part4, Part5
MultiUpload: Part1, Part2, Part3, Part4, Part5
Sendspace: Part1, Part2, Part3, Part4, Part5, Part6, Part7, Part8, Part9, Part10, Part11, Part12
ShareBeast: Part1, Part2, Part3, Part4, Part5, Part6, Part7, Part8, Part9, Part10, Part11, Part12, Part13, Part14, Part15, Part16, Part17, Part18
HashesCRC32: 2CF6D227, MD5: B0E9D1A23D9626861976A468CB7010DF, SHA1: CA7087C9FA0959853F77D9556FEB605922B62C15, SHA256: E0DC62424D4E48650305769C65E671EE759C2D158633818FC96A810B06BD1DDC, ED2K: 50A31C1DC4EADB870A149C53B70A0D3E
Screenshots
screenshotscreenshotscreenshotscreenshotscreenshot
Additional Info
General
Complete name                            : Detective Conan - Movie 15 - Quarter of Silence [DCTP][1080p][H264][2CF6D227].mp4
Format                                   : MPEG-4
Format profile                           : Base Media
Codec ID                                 : isom
File size                                : 3.50 GiB
Duration                                 : 1h 49mn
Overall bit rate mode                    : Variable
Overall bit rate                         : 4 575 Kbps
Encoded date                             : UTC 2013-05-30 18:48:11
Tagged date                              : UTC 2013-05-30 18:48:11

Video
ID                                       : 1
Format                                   : AVC
Format/Info                              : Advanced Video Codec
Format profile                           : High@L4.1
Format settings, CABAC                   : Yes
Format settings, ReFrames                : 3 frames
Codec ID                                 : avc1
Codec ID/Info                            : Advanced Video Coding
Duration                                 : 1h 49mn
Bit rate                                 : 4 184 Kbps
Maximum bit rate                         : 41.2 Mbps
Width                                    : 1 920 pixels
Height                                   : 1 080 pixels
Display aspect ratio                     : 16:9
Frame rate mode                          : Constant
Frame rate                               : 23.976 fps
Color space                              : YUV
Chroma subsampling                       : 4:2:0
Bit depth                                : 8 bits
Scan type                                : Progressive
Bits/(Pixel*Frame)                       : 0.084
Stream size                              : 3.20 GiB (91%)
Writing library                          : x264 core 130 r2273 b3065e6
Encoding settings                        : cabac=1 / ref=4 / deblock=1:1:1 / analyse=0x3:0x133 / me=umh / subme=9 / psy=1 / psy_rd=0.40:0.00 / mixed_ref=1 / me_range=16 / chroma_me=1 / trellis=2 / 8x8dct=1 / cqm=0 / deadzone=21,11 / fast_pskip=1 / chroma_qp_offset=-2 / threads=9 / lookahead_threads=1 / sliced_threads=0 / nr=0 / decimate=1 / interlaced=0 / bluray_compat=0 / constrained_intra=0 / bframes=5 / b_pyramid=1 / b_adapt=2 / b_bias=0 / direct=3 / weightb=1 / open_gop=0 / weightp=2 / keyint=240 / keyint_min=23 / scenecut=40 / intra_refresh=0 / rc_lookahead=60 / rc=2pass / mbtree=1 / bitrate=4184 / ratetol=1.0 / qcomp=0.60 / qpmin=10 / qpmax=51 / qpstep=4 / cplxblur=20.0 / qblur=0.5 / vbv_maxrate=62500 / vbv_bufsize=78125 / nal_hrd=none / ip_ratio=1.40 / aq=1:0.60
Encoded date                             : UTC 2013-05-19 03:07:21
Tagged date                              : UTC 2013-05-30 18:49:07

Audio
ID                                       : 2
Format                                   : AAC
Format/Info                              : Advanced Audio Codec
Format profile                           : LC
Codec ID                                 : 40
Duration                                 : 1h 49mn
Bit rate mode                            : Variable
Bit rate                                 : 384 Kbps
Maximum bit rate                         : 482 Kbps
Channel(s)                               : 6 channels
Channel positions                        : Front: L C R, Side: L R, LFE
Sampling rate                            : 48.0 KHz
Compression mode                         : Lossy
Delay relative to video                  : -3s 337ms
Stream size                              : 302 MiB (8%)
Encoded date                             : UTC 2013-05-19 13:38:07
Tagged date                              : UTC 2013-05-30 18:49:07
beta
Anime DDL+NZB mirror
Current Time: 01/08/2021 21:09



About/FAQs