[DeadFish] Zetman - 11 [720p][MP4][AAC].mp4


File Size221.5 MB (232,230,730 bytes)
DownloadBitshare | FileFactory | Hitfile | JumboFiles | TurboBit | UploadedTo
FlameUpload: Part1, Part2
HashesCRC32: 9D0EA7A9, MD5: EF06E6826B4DF4F224681C64F7556AD5, SHA1: BCAD060F9EDC3C7EEE4C024BDE3EA34454AB5109, SHA256: D8C541DB1D7FDF4BF0A645972B55C2B25CF52F4CDE9988C160D367EBE00B62C7, ED2K: 6739C55DA35A11EC4BEBE1D685B9811F
Screenshots
screenshotscreenshotscreenshotscreenshotscreenshot
Additional Info
General
Complete name                            : [DeadFish] Zetman - 11 [720p][MP4][AAC].mp4
Format                                   : MPEG-4
Format profile                           : Base Media
Codec ID                                 : isom
File size                                : 221 MiB
Duration                                 : 23mn 39s
Overall bit rate mode                    : Variable
Overall bit rate                         : 1 308 Kbps
Encoded date                             : UTC 2012-06-11 09:42:23
Tagged date                              : UTC 2012-06-11 09:42:23

Video
ID                                       : 1
Format                                   : AVC
Format/Info                              : Advanced Video Codec
Format profile                           : High@L4.1
Format settings, CABAC                   : Yes
Format settings, ReFrames                : 9 frames
Codec ID                                 : avc1
Codec ID/Info                            : Advanced Video Coding
Duration                                 : 23mn 39s
Bit rate                                 : 1 052 Kbps
Maximum bit rate                         : 6 607 Kbps
Width                                    : 1 280 pixels
Height                                   : 720 pixels
Display aspect ratio                     : 16:9
Frame rate mode                          : Constant
Frame rate                               : 23.976 fps
Color space                              : YUV
Chroma subsampling                       : 4:2:0
Bit depth                                : 8 bits
Scan type                                : Progressive
Bits/(Pixel*Frame)                       : 0.048
Stream size                              : 178 MiB (80%)
Writing library                          : x264 core 125 r2200 999b753
Encoding settings                        : cabac=1 / ref=9 / deblock=1:1:1 / analyse=0x3:0x113 / me=umh / subme=8 / psy=1 / psy_rd=0.40:0.00 / mixed_ref=1 / me_range=16 / chroma_me=1 / trellis=1 / 8x8dct=1 / cqm=0 / deadzone=21,11 / fast_pskip=1 / chroma_qp_offset=-2 / threads=6 / lookahead_threads=1 / sliced_threads=0 / nr=0 / decimate=1 / interlaced=0 / bluray_compat=0 / constrained_intra=0 / bframes=5 / b_pyramid=2 / b_adapt=2 / b_bias=0 / direct=3 / weightb=1 / open_gop=0 / weightp=2 / keyint=250 / keyint_min=23 / scenecut=40 / intra_refresh=0 / rc_lookahead=50 / rc=crf / mbtree=1 / crf=20.0 / qcomp=0.60 / qpmin=0 / qpmax=69 / qpstep=4 / ip_ratio=1.40 / aq=1:0.60
Encoded date                             : UTC 2012-06-12 08:44:51
Tagged date                              : UTC 2012-06-11 09:42:27

Audio
ID                                       : 2
Format                                   : AAC
Format/Info                              : Advanced Audio Codec
Format profile                           : LC
Codec ID                                 : 40
Duration                                 : 23mn 39s
Bit rate mode                            : Variable
Bit rate                                 : 253 Kbps
Maximum bit rate                         : 261 Kbps
Channel(s)                               : 2 channels
Channel positions                        : Front: L R
Sampling rate                            : 48.0 KHz
Compression mode                         : Lossy
Delay relative to video                  : -3s 337ms
Stream size                              : 42.8 MiB (19%)
Title                                    : Imported with GPAC 0.4.6-DEV (internal rev. 5)
Encoded date                             : UTC 2012-06-11 09:42:24
Tagged date                              : UTC 2012-06-11 09:42:27
beta
Anime DDL+NZB mirror
Current Time: 21/05/2022 09:30



About/FAQs

Discord