[DeadFish] Violet Evergarden: Kitto -Koi- wo Shiru Hi ga Kuru no Darou - Special [BD]1080p][AAC].mp4


File Size1.239 GB (1,330,028,624 bytes)
DownloadClickNUpload: Part1, Part2
Jheberg: Part1, Part2
MultiUp: Part1, Part2
OpenLoad: Part1, Part2
Sendspace: Part1, Part2, Part3, Part4, Part5
SolidFiles: Part1, Part2, Part3
ZippyShare: Part1, Part2, Part3
Encrypted DownloadDirect: Part1, Part2
Password:
HashesCRC32: 70900792, MD5: AA807BFBCA7567F14419582EBF2C8B2F, SHA1: 51AB75E1542A12F4965A27A863E26B94293175F2, SHA256: 24B3A4A76392AEC12ED5E5F88CFFB7E2E46FD78FA15856DC3164B27281396CA1, ED2K: AB6448F84DE054083AFC69222687F4A6
Screenshots
screenshotscreenshotscreenshotscreenshotscreenshot
Additional Info
General
Complete name                            : [DeadFish] Violet Evergarden: Kitto -Koi- wo Shiru Hi ga Kuru no Darou - Special [BD]1080p][AAC].mp4
Format                                   : MPEG-4
Format profile                           : Base Media
Codec ID                                 : isom (isom/avc1)
File size                                : 1.24 GiB
Duration                                 : 34 min 14 s
Overall bit rate mode                    : Variable
Overall bit rate                         : 5 178 kb/s
Encoded date                             : UTC 2018-10-07 18:27:49
Tagged date                              : UTC 2018-10-07 18:27:49
Writing application                      : MkvToMp4 [www.mkvtomp4.ru] version 0.224 (x64)

Video
ID                                       : 1
Format                                   : AVC
Format/Info                              : Advanced Video Codec
Format profile                           : High@L4.1
Format settings, CABAC                   : Yes
Format settings, ReFrames                : 4 frames
Codec ID                                 : avc1
Codec ID/Info                            : Advanced Video Coding
Duration                                 : 34 min 14 s
Bit rate mode                            : Variable
Bit rate                                 : 5 046 kb/s
Maximum bit rate                         : 62.5 Mb/s
Width                                    : 1 920 pixels
Height                                   : 1 080 pixels
Display aspect ratio                     : 16:9
Frame rate mode                          : Constant
Frame rate                               : 23.976 (24000/1001) FPS
Color space                              : YUV
Chroma subsampling                       : 4:2:0
Bit depth                                : 8 bits
Scan type                                : Progressive
Bits/(Pixel*Frame)                       : 0.102
Stream size                              : 1.21 GiB (97%)
Writing library                          : x264 core 146 r2538 121396c
Encoding settings                        : cabac=1 / ref=4 / deblock=1:1:1 / analyse=0x3:0x133 / me=tesa / subme=11 / psy=1 / psy_rd=0.40:0.00 / mixed_ref=1 / me_range=24 / chroma_me=1 / trellis=2 / 8x8dct=1 / cqm=0 / deadzone=21,11 / fast_pskip=0 / chroma_qp_offset=-2 / threads=18 / lookahead_threads=4 / sliced_threads=0 / nr=0 / decimate=1 / interlaced=0 / bluray_compat=0 / constrained_intra=0 / bframes=16 / b_pyramid=0 / b_adapt=2 / b_bias=0 / direct=3 / weightb=1 / open_gop=0 / weightp=2 / keyint=240 / keyint_min=24 / scenecut=40 / intra_refresh=0 / rc_lookahead=60 / rc=crf / mbtree=1 / crf=12.0 / qcomp=0.60 / qpmin=0 / qpmax=69 / qpstep=4 / vbv_maxrate=62500 / vbv_bufsize=62500 / crf_max=0.0 / nal_hrd=vbr / filler=0 / ip_ratio=1.40 / aq=1:0.60
Language                                 : English
Encoded date                             : UTC 2018-10-07 18:27:49
Tagged date                              : UTC 2018-10-07 18:27:57

Audio
ID                                       : 2
Format                                   : AAC
Format/Info                              : Advanced Audio Codec
Format profile                           : LC
Codec ID                                 : 40
Duration                                 : 34 min 14 s
Bit rate mode                            : Variable
Bit rate                                 : 128 kb/s
Maximum bit rate                         : 249 kb/s
Channel(s)                               : 2 channels
Channel positions                        : Front: L R
Sampling rate                            : 48.0 kHz
Frame rate                               : 46.875 FPS (1024 spf)
Compression mode                         : Lossy
Stream size                              : 31.3 MiB (2%)
Language                                 : English
Default                                  : Yes
Alternate group                          : 1
Encoded date                             : UTC 2018-10-07 18:27:56
Tagged date                              : UTC 2018-10-07 18:27:57
beta
Anime DDL+NZB mirror
Current Time: 09/04/2020 20:20



About/FAQs