[DeadFish] Tokyo Ghoul: Jack - OVA [BD][720p][AAC].mp4


File Size608.5 MB (638,068,665 bytes)
DownloadGo4Up
  • 180Upload
  • Bitshare
  • Ezfile
  • FileFactory
  • FilePup
  • Lenfile
  • MegaShares
  • NowDownload
  • Oboom
  • Rapidgator
  • Share-Online
  • ToutBox
  • Uplea
  • Uploadable
  • Uppit
  • UsersCloud
| Jheberg | MultiUp
Sendspace: Part1, Part2, Part3
SolidFiles: Part1, Part2
HashesCRC32: 2C0C647D, MD5: 76B87C5F309E01DB30DDDC855453CA2A, SHA1: 722D40F1AA4C5C74FF072971F919896A1C8624AF, SHA256: C880F6FC064A18F57C5EFE2D053DEEA72C13E9C68BBD54717E289998BA61BAF2, ED2K: 34A577E1A6D30478E7B85CF5C94AC24D
Screenshots
screenshotscreenshotscreenshotscreenshotscreenshot
Additional Info
General
Complete name                            : [DeadFish] Tokyo Ghoul: Jack - OVA [BD][720p][AAC].mp4
Format                                   : MPEG-4
Format profile                           : Base Media
Codec ID                                 : isom
File size                                : 609 MiB
Duration                                 : 30mn 3s
Overall bit rate mode                    : Variable
Overall bit rate                         : 2 830 Kbps
Encoded date                             : UTC 2015-10-21 21:33:07
Tagged date                              : UTC 2015-10-21 21:33:07
Writing application                      : MkvToMp4 [www.mkvtomp4.ru] version 0.224 (x64)

Video
ID                                       : 1
Format                                   : AVC
Format/Info                              : Advanced Video Codec
Format profile                           : High@L4.1
Format settings, CABAC                   : Yes
Format settings, ReFrames                : 4 frames
Codec ID                                 : avc1
Codec ID/Info                            : Advanced Video Coding
Duration                                 : 30mn 3s
Bit rate mode                            : Variable
Bit rate                                 : 2 699 Kbps
Maximum bit rate                         : 62.5 Mbps
Width                                    : 1 280 pixels
Height                                   : 720 pixels
Display aspect ratio                     : 16:9
Frame rate mode                          : Constant
Frame rate                               : 23.976 fps
Color space                              : YUV
Chroma subsampling                       : 4:2:0
Bit depth                                : 8 bits
Scan type                                : Progressive
Bits/(Pixel*Frame)                       : 0.122
Stream size                              : 580 MiB (95%)
Writing library                          : x264 core 146 r2538 121396c
Encoding settings                        : cabac=1 / ref=4 / deblock=1:1:1 / analyse=0x3:0x133 / me=tesa / subme=11 / psy=1 / psy_rd=0.40:0.00 / mixed_ref=1 / me_range=24 / chroma_me=1 / trellis=2 / 8x8dct=1 / cqm=0 / deadzone=21,11 / fast_pskip=0 / chroma_qp_offset=-2 / threads=18 / lookahead_threads=4 / sliced_threads=0 / nr=0 / decimate=1 / interlaced=0 / bluray_compat=0 / constrained_intra=0 / bframes=16 / b_pyramid=0 / b_adapt=2 / b_bias=0 / direct=3 / weightb=1 / open_gop=0 / weightp=2 / keyint=240 / keyint_min=24 / scenecut=40 / intra_refresh=0 / rc_lookahead=60 / rc=crf / mbtree=1 / crf=13.5 / qcomp=0.60 / qpmin=0 / qpmax=69 / qpstep=4 / vbv_maxrate=62500 / vbv_bufsize=62500 / crf_max=0.0 / nal_hrd=vbr / filler=0 / ip_ratio=1.40 / aq=1:0.60
Language                                 : English
Encoded date                             : UTC 2015-10-21 21:33:07
Tagged date                              : UTC 2015-10-21 21:33:10

Audio
ID                                       : 2
Format                                   : AAC
Format/Info                              : Advanced Audio Codec
Format profile                           : LC
Codec ID                                 : 40
Duration                                 : 30mn 3s
Bit rate mode                            : Variable
Bit rate                                 : 128 Kbps
Maximum bit rate                         : 159 Kbps
Channel(s)                               : 2 channels
Channel positions                        : Front: L R
Sampling rate                            : 48.0 KHz
Compression mode                         : Lossy
Stream size                              : 27.4 MiB (5%)
Language                                 : English
Encoded date                             : UTC 2015-10-21 21:33:10
Tagged date                              : UTC 2015-10-21 21:33:10
beta
Anime DDL+NZB mirror
Current Time: 23/01/2021 19:43



About/FAQs