File Size583.1 MB (611,476,737 bytes)
DownloadClickNUpload | Jheberg | OpenLoad
MultiUp: Part1
  • BdUpload
  • DownAce
  • Fichier
  • FileCloud
  • Filerio
  • FilesCdn
  • IndiShare
  • Kbagi
  • Turbobit
  • UpToBox
  • Uppit
, Part2
  • BdUpload
  • DownAce
  • Fichier
  • FileCloud
  • Filerio
  • FilesCdn
  • IndiShare
  • Kbagi
  • Turbobit
  • UpToBox
  • Uppit

Sendspace: Part1, Part2
SolidFiles: Part1, Part2
ZippyShare: Part1, Part2
HashesCRC32: 9AD59A7F, MD5: 80218ADF3FF18722D43A01192B9848A9, SHA1: 9ECA7A96950C9C9911FAF00D72293B3E2EB57AEC, SHA256: 9ABA2545242FE9BBAFE329E8F52CDED2C3E71879D6EA755C354FA192CE9F2390, ED2K: 1C4BE77B320A749C93F7A1D4D2F5BB3B
Screenshots
screenshotscreenshotscreenshotscreenshotscreenshot
Additional Info
General
Complete name                            : [DeadFish] Shinkansen Henkei Robo Shinkalion The Animation - 69 [720p][AAC].mp4
Format                                   : MPEG-4
Format profile                           : Base Media
Codec ID                                 : isom (isom/avc1/iso6)
File size                                : 583 MiB
Duration                                 : 24 min 32 s
Overall bit rate mode                    : Variable
Overall bit rate                         : 3 323 kb/s
Encoded date                             : UTC 2019-06-03 01:17:22
Tagged date                              : UTC 2019-06-03 01:17:22

Video
ID                                       : 1
Format                                   : AVC
Format/Info                              : Advanced Video Codec
Format profile                           : High@L4.1
Format settings                          : CABAC / 4 Ref Frames
Format settings, CABAC                   : Yes
Format settings, ReFrames                : 4 frames
Codec ID                                 : avc1
Codec ID/Info                            : Advanced Video Coding
Duration                                 : 24 min 31 s
Bit rate mode                            : Variable
Bit rate                                 : 3 192 kb/s
Maximum bit rate                         : 62.5 Mb/s
Width                                    : 1 280 pixels
Height                                   : 720 pixels
Display aspect ratio                     : 16:9
Frame rate mode                          : Constant
Frame rate                               : 23.976 (24000/1001) FPS
Color space                              : YUV
Chroma subsampling                       : 4:2:0
Bit depth                                : 8 bits
Scan type                                : Progressive
Bits/(Pixel*Frame)                       : 0.144
Stream size                              : 560 MiB (96%)
Title                                    : 264@GPAC0.5.2-DEV-rev248-g39d5978-master
Writing library                          : x264 core 146 r2538 121396c
Encoding settings                        : cabac=1 / ref=4 / deblock=1:1:1 / analyse=0x3:0x133 / me=tesa / subme=11 / psy=1 / psy_rd=0.40:0.00 / mixed_ref=1 / me_range=24 / chroma_me=1 / trellis=2 / 8x8dct=1 / cqm=0 / deadzone=21,11 / fast_pskip=0 / chroma_qp_offset=-2 / threads=18 / lookahead_threads=4 / sliced_threads=0 / nr=0 / decimate=1 / interlaced=0 / bluray_compat=0 / constrained_intra=0 / bframes=16 / b_pyramid=0 / b_adapt=2 / b_bias=0 / direct=3 / weightb=1 / open_gop=0 / weightp=2 / keyint=240 / keyint_min=24 / scenecut=40 / intra_refresh=0 / rc_lookahead=60 / rc=crf / mbtree=1 / crf=14.0 / qcomp=0.60 / qpmin=0 / qpmax=69 / qpstep=4 / vbv_maxrate=62500 / vbv_bufsize=62500 / crf_max=0.0 / nal_hrd=vbr / filler=0 / ip_ratio=1.40 / aq=1:0.60
Encoded date                             : UTC 2019-06-03 01:17:22
Tagged date                              : UTC 2019-06-03 01:17:25
Codec configuration box                  : avcC

Audio
ID                                       : 2
Format                                   : AAC LC
Format/Info                              : Advanced Audio Codec Low Complexity
Codec ID                                 : mp4a-40-2
Duration                                 : 24 min 32 s
Bit rate mode                            : Variable
Bit rate                                 : 128 kb/s
Maximum bit rate                         : 161 kb/s
Channel(s)                               : 2 channels
Channel layout                           : L R
Sampling rate                            : 48.0 kHz
Frame rate                               : 46.875 FPS (1024 SPF)
Compression mode                         : Lossy
Stream size                              : 22.4 MiB (4%)
Encoded date                             : UTC 2019-06-03 00:40:50
Tagged date                              : UTC 2019-06-03 01:17:25

Other Files in this Torrent
[DeadFish] Shinkansen Henkei Robo Shinkalion The Animation - 69 [720p][AAC].mp4
beta
Anime DDL+NZB mirror
Current Time: 21/07/2019 01:25



About/FAQs