File Size22.65 MB (23,745,709 bytes)
DownloadEmbedUpload | MirrorStack | MultiUpload | Sendspace | ShareBeast
HashesCRC32: 566832C6, MD5: 44D8577AB1FBAA6467DB039C9025FA82, SHA1: 145242F40FBECC8F52AC14D7CD8E24D2C50676D1, SHA256: B2BA2839407E1013373262EED15DEDF7A8C295955BF6416A85E237C0D08A5989, ED2K: 68769A7436326BC099840375EF23ED82
Screenshots
screenshotscreenshotscreenshotscreenshot
Additional Info
General
Complete name                            : [DeadFish] Ookami to Koushinryou II - Special 02 [BD][720p][AAC].mp4
Format                                   : MPEG-4
Format profile                           : Base Media
Codec ID                                 : isom
File size                                : 22.6 MiB
Duration                                 : 3mn 58s
Overall bit rate mode                    : Variable
Overall bit rate                         : 796 Kbps
Encoded date                             : UTC 2012-12-21 01:46:32
Tagged date                              : UTC 2012-12-21 01:46:32

Video
ID                                       : 1
Format                                   : AVC
Format/Info                              : Advanced Video Codec
Format profile                           : High@L4.1
Format settings, CABAC                   : Yes
Format settings, ReFrames                : 4 frames
Codec ID                                 : avc1
Codec ID/Info                            : Advanced Video Coding
Duration                                 : 3mn 58s
Bit rate                                 : 643 Kbps
Maximum bit rate                         : 1 942 Kbps
Width                                    : 1 280 pixels
Height                                   : 720 pixels
Display aspect ratio                     : 16:9
Frame rate mode                          : Constant
Frame rate                               : 23.976 fps
Color space                              : YUV
Chroma subsampling                       : 4:2:0
Bit depth                                : 8 bits
Scan type                                : Progressive
Bits/(Pixel*Frame)                       : 0.029
Stream size                              : 18.3 MiB (81%)
Writing library                          : x264 core 129 r2230 1cffe9f
Encoding settings                        : cabac=1 / ref=4 / deblock=1:1:1 / analyse=0x3:0x113 / me=hex / subme=6 / psy=1 / psy_rd=0.40:0.00 / mixed_ref=1 / me_range=16 / chroma_me=1 / trellis=1 / 8x8dct=1 / cqm=0 / deadzone=21,11 / fast_pskip=1 / chroma_qp_offset=-2 / threads=6 / lookahead_threads=1 / sliced_threads=0 / nr=0 / decimate=1 / interlaced=0 / bluray_compat=0 / constrained_intra=0 / bframes=5 / b_pyramid=2 / b_adapt=1 / b_bias=0 / direct=1 / weightb=1 / open_gop=0 / weightp=1 / keyint=250 / keyint_min=23 / scenecut=40 / intra_refresh=0 / rc_lookahead=30 / rc=crf / mbtree=1 / crf=21.0 / qcomp=0.60 / qpmin=0 / qpmax=69 / qpstep=4 / ip_ratio=1.40 / aq=1:0.60
Encoded date                             : UTC 2012-12-22 01:45:46
Tagged date                              : UTC 2012-12-21 01:46:32

Audio
ID                                       : 2
Format                                   : AAC
Format/Info                              : Advanced Audio Codec
Format profile                           : LC
Codec ID                                 : 40
Duration                                 : 3mn 58s
Bit rate mode                            : Variable
Bit rate                                 : 149 Kbps
Maximum bit rate                         : 199 Kbps
Channel(s)                               : 2 channels
Channel positions                        : Front: L R
Sampling rate                            : 48.0 KHz
Compression mode                         : Lossy
Delay relative to video                  : -3s 337ms
Stream size                              : 4.25 MiB (19%)
Title                                    : Imported with GPAC 0.4.6-DEV (internal rev. 5)
Encoded date                             : UTC 2012-12-21 01:46:32
Tagged date                              : UTC 2012-12-21 01:46:32

Other Files in this Torrent
[DeadFish] Ookami to Koushinryou II - Special 02 [BD][720p][AAC].mp4
beta
Anime DDL+NZB mirror
Current Time: 26/09/2021 03:16



About/FAQs

Discord