File Size400.3 MB (419,769,708 bytes)
DownloadGo4Up | Jheberg | MultiUp | SolidFiles
Sendspace: Part1, Part2
HashesCRC32: D697702A, MD5: 8B4008F4F78518942CAEBA63D5EAEDF0, SHA1: B3BA7B294A618D08B7270F58E33AED4EBF700094, SHA256: 7D67980871B52CD2C7837A08198006C87A5D094EB87A1720BB61C6E0CAB14A0F, ED2K: 238F1960DF811D3EC0C27E5A6A568E40
Screenshots
screenshotscreenshotscreenshotscreenshotscreenshot
Additional Info
General
Complete name                            : [DeadFish] One Punch Man - 06v2 [720p][AAC].mp4
Format                                   : MPEG-4
Format profile                           : Base Media
Codec ID                                 : isom
File size                                : 400 MiB
Duration                                 : 24mn 20s
Overall bit rate mode                    : Variable
Overall bit rate                         : 2 300 Kbps
Encoded date                             : UTC 2015-12-01 05:03:05
Tagged date                              : UTC 2015-12-01 05:03:05

Video
ID                                       : 1
Format                                   : AVC
Format/Info                              : Advanced Video Codec
Format profile                           : High@L4.1
Format settings, CABAC                   : Yes
Format settings, ReFrames                : 4 frames
Codec ID                                 : avc1
Codec ID/Info                            : Advanced Video Coding
Duration                                 : 24mn 20s
Bit rate mode                            : Variable
Bit rate                                 : 2 168 Kbps
Maximum bit rate                         : 62.5 Mbps
Width                                    : 1 280 pixels
Height                                   : 720 pixels
Display aspect ratio                     : 16:9
Frame rate mode                          : Constant
Frame rate                               : 23.976 fps
Color space                              : YUV
Chroma subsampling                       : 4:2:0
Bit depth                                : 8 bits
Scan type                                : Progressive
Bits/(Pixel*Frame)                       : 0.098
Stream size                              : 377 MiB (94%)
Title                                    : 264@GPAC0.5.2-DEV-rev248-g39d5978-master
Writing library                          : x264 core 146 r2538 121396c
Encoding settings                        : cabac=1 / ref=4 / deblock=1:1:1 / analyse=0x3:0x133 / me=tesa / subme=11 / psy=1 / psy_rd=0.40:0.00 / mixed_ref=1 / me_range=24 / chroma_me=1 / trellis=2 / 8x8dct=1 / cqm=0 / deadzone=21,11 / fast_pskip=0 / chroma_qp_offset=-2 / threads=18 / lookahead_threads=4 / sliced_threads=0 / nr=0 / decimate=1 / interlaced=0 / bluray_compat=0 / constrained_intra=0 / bframes=16 / b_pyramid=0 / b_adapt=2 / b_bias=0 / direct=3 / weightb=1 / open_gop=0 / weightp=2 / keyint=240 / keyint_min=24 / scenecut=40 / intra_refresh=0 / rc_lookahead=60 / rc=crf / mbtree=1 / crf=15.0 / qcomp=0.60 / qpmin=0 / qpmax=69 / qpstep=4 / vbv_maxrate=62500 / vbv_bufsize=62500 / crf_max=0.0 / nal_hrd=vbr / filler=0 / ip_ratio=1.40 / aq=1:0.60
Encoded date                             : UTC 2015-12-01 05:03:05
Tagged date                              : UTC 2015-12-01 05:03:09

Audio
ID                                       : 2
Format                                   : AAC
Format/Info                              : Advanced Audio Codec
Format profile                           : LC
Codec ID                                 : 40
Duration                                 : 24mn 20s
Bit rate mode                            : Variable
Bit rate                                 : 128 Kbps
Maximum bit rate                         : 186 Kbps
Channel(s)                               : 2 channels
Channel positions                        : Front: L R
Sampling rate                            : 48.0 KHz
Compression mode                         : Lossy
Stream size                              : 22.3 MiB (6%)
Encoded date                             : UTC 2015-12-01 04:12:30
Tagged date                              : UTC 2015-12-01 05:03:09
beta
Anime DDL+NZB mirror
Current Time: 27/09/2022 17:43



About/FAQs

Discord