[DeadFish] Mobile Suit Gundam Thunderbolt - 03 - ONA [720p][AAC].mp4


File Size433.3 MB (454,326,003 bytes)
DownloadGo4Up | Jheberg | MultiUp | SolidFiles | UsersCloud | UsersFiles
Sendspace: Part1, Part2
HashesCRC32: C0BE0233, MD5: 752E6C379BAF533E6355C7FD92D4F41E, SHA1: 3D94AF604597C001973C959B1426801C5801D0A9, SHA256: 15B529F9B72E259EF26920C65FB0650BB224CE3982A8BD76E70BCBCD114A80CE, ED2K: 0A4BA61620C01BDE543651D2B23EE637
Screenshots
screenshotscreenshotscreenshotscreenshotscreenshot
Additional Info
General
Complete name                            : [DeadFish] Mobile Suit Gundam Thunderbolt - 03 - ONA [720p][AAC].mp4
Format                                   : MPEG-4
Format profile                           : Base Media
Codec ID                                 : isom (isom/avc1/iso6)
File size                                : 433 MiB
Duration                                 : 18mn 32s
Overall bit rate mode                    : Variable
Overall bit rate                         : 3 269 Kbps
Encoded date                             : UTC 2016-04-13 08:56:57
Tagged date                              : UTC 2016-04-13 08:56:57

Video
ID                                       : 1
Format                                   : AVC
Format/Info                              : Advanced Video Codec
Format profile                           : High@L4.1
Format settings, CABAC                   : Yes
Format settings, ReFrames                : 4 frames
Codec ID                                 : avc1
Codec ID/Info                            : Advanced Video Coding
Duration                                 : 18mn 31s
Bit rate mode                            : Variable
Bit rate                                 : 3 137 Kbps
Maximum bit rate                         : 62.5 Mbps
Width                                    : 1 280 pixels
Height                                   : 720 pixels
Display aspect ratio                     : 16:9
Frame rate mode                          : Constant
Frame rate                               : 23.976 (24000/1001) fps
Color space                              : YUV
Chroma subsampling                       : 4:2:0
Bit depth                                : 8 bits
Scan type                                : Progressive
Bits/(Pixel*Frame)                       : 0.142
Stream size                              : 416 MiB (96%)
Title                                    : 264@GPAC0.5.2-DEV-rev248-g39d5978-master
Writing library                          : x264 core 146 r2538 121396c
Encoding settings                        : cabac=1 / ref=4 / deblock=1:1:1 / analyse=0x3:0x133 / me=tesa / subme=11 / psy=1 / psy_rd=0.40:0.00 / mixed_ref=1 / me_range=24 / chroma_me=1 / trellis=2 / 8x8dct=1 / cqm=0 / deadzone=21,11 / fast_pskip=0 / chroma_qp_offset=-2 / threads=18 / lookahead_threads=4 / sliced_threads=0 / nr=0 / decimate=1 / interlaced=0 / bluray_compat=0 / constrained_intra=0 / bframes=16 / b_pyramid=0 / b_adapt=2 / b_bias=0 / direct=3 / weightb=1 / open_gop=0 / weightp=2 / keyint=240 / keyint_min=24 / scenecut=40 / intra_refresh=0 / rc_lookahead=60 / rc=crf / mbtree=1 / crf=14.0 / qcomp=0.60 / qpmin=0 / qpmax=69 / qpstep=4 / vbv_maxrate=62500 / vbv_bufsize=62500 / crf_max=0.0 / nal_hrd=vbr / filler=0 / ip_ratio=1.40 / aq=1:0.60
Encoded date                             : UTC 2016-04-13 08:56:57
Tagged date                              : UTC 2016-04-13 08:57:01

Audio
ID                                       : 2
Format                                   : AAC
Format/Info                              : Advanced Audio Codec
Format profile                           : LC
Codec ID                                 : 40
Duration                                 : 18mn 32s
Bit rate mode                            : Variable
Bit rate                                 : 128 Kbps
Maximum bit rate                         : 142 Kbps
Channel(s)                               : 2 channels
Channel positions                        : Front: L R
Sampling rate                            : 48.0 KHz
Frame rate                               : 46.875 fps (1024 spf)
Compression mode                         : Lossy
Stream size                              : 17.0 MiB (4%)
Encoded date                             : UTC 2016-04-13 08:14:19
Tagged date                              : UTC 2016-04-13 08:57:01
beta
Anime DDL+NZB mirror
Current Time: 20/07/2024 03:30



About/FAQs

Discord