[DeadFish] Koutetsujou no Kabaneri: Unato Kessen - Part III - Movie [720p][AAC].mp4


File Size988.5 MB (1,036,465,349 bytes)
DownloadClickNUpload | Jheberg | OpenLoad
MultiUp: Part1
  • BdUpload
  • DownAce
  • Fichier
  • FileCloud
  • Filerio
  • FilesCdn
  • IndiShare
  • Kbagi
  • Turbobit
  • UpToBox
  • Uppit
, Part2
  • BdUpload
  • DownAce
  • Fichier
  • FileCloud
  • Filerio
  • FilesCdn
  • IndiShare
  • Kbagi
  • Turbobit
  • UpToBox
  • Uppit

Sendspace: Part1, Part2, Part3, Part4
SolidFiles: Part1, Part2
ZippyShare: Part1, Part2
HashesCRC32: 1D776D55, MD5: 3E174D45F5D5D621B1D22895E5C1A6DD, SHA1: 729E51C5DD19F010A6B430CF340EE3339C2BC9A0, SHA256: 3E1A4E5C2B1BDE755F718F15B3BF24075CDD772CC8EB66D5B8B8A86791D6F38F, ED2K: 9E6E9B5CF44E28EBD225C9DF7E1602A9
Screenshots
screenshotscreenshotscreenshotscreenshotscreenshot
Additional Info
General
Complete name                            : [DeadFish] Koutetsujou no Kabaneri: Unato Kessen - Part III - Movie [720p][AAC].mp4
Format                                   : MPEG-4
Format profile                           : Base Media
Codec ID                                 : isom (isom/avc1)
File size                                : 988 MiB
Duration                                 : 30 min 45 s
Overall bit rate mode                    : Variable
Overall bit rate                         : 4 492 kb/s
Encoded date                             : UTC 2019-05-31 04:29:28
Tagged date                              : UTC 2019-05-31 04:29:28
Writing application                      : MkvToMp4 [www.mkvtomp4.ru] version 0.224 (x64)

Video
ID                                       : 1
Format                                   : AVC
Format/Info                              : Advanced Video Codec
Format profile                           : High@L4.1
Format settings                          : CABAC / 4 Ref Frames
Format settings, CABAC                   : Yes
Format settings, ReFrames                : 4 frames
Codec ID                                 : avc1
Codec ID/Info                            : Advanced Video Coding
Duration                                 : 30 min 45 s
Bit rate mode                            : Variable
Bit rate                                 : 4 363 kb/s
Maximum bit rate                         : 62.5 Mb/s
Width                                    : 1 280 pixels
Height                                   : 720 pixels
Display aspect ratio                     : 16:9
Frame rate mode                          : Constant
Frame rate                               : 23.976 (24000/1001) FPS
Color space                              : YUV
Chroma subsampling                       : 4:2:0
Bit depth                                : 8 bits
Scan type                                : Progressive
Bits/(Pixel*Frame)                       : 0.197
Stream size                              : 960 MiB (97%)
Writing library                          : x264 core 146 r2538 121396c
Encoding settings                        : cabac=1 / ref=4 / deblock=1:1:1 / analyse=0x3:0x133 / me=tesa / subme=11 / psy=1 / psy_rd=0.40:0.00 / mixed_ref=1 / me_range=24 / chroma_me=1 / trellis=2 / 8x8dct=1 / cqm=0 / deadzone=21,11 / fast_pskip=0 / chroma_qp_offset=-2 / threads=18 / lookahead_threads=4 / sliced_threads=0 / nr=0 / decimate=1 / interlaced=0 / bluray_compat=0 / constrained_intra=0 / bframes=16 / b_pyramid=0 / b_adapt=2 / b_bias=0 / direct=3 / weightb=1 / open_gop=0 / weightp=2 / keyint=240 / keyint_min=24 / scenecut=40 / intra_refresh=0 / rc_lookahead=60 / rc=crf / mbtree=1 / crf=14.0 / qcomp=0.60 / qpmin=0 / qpmax=69 / qpstep=4 / vbv_maxrate=62500 / vbv_bufsize=62500 / crf_max=0.0 / nal_hrd=vbr / filler=0 / ip_ratio=1.40 / aq=1:0.60
Language                                 : English
Encoded date                             : UTC 2019-05-31 04:29:28
Tagged date                              : UTC 2019-05-31 04:29:33
Codec configuration box                  : avcC

Audio
ID                                       : 2
Format                                   : AAC LC
Format/Info                              : Advanced Audio Codec Low Complexity
Codec ID                                 : mp4a-40-2
Duration                                 : 30 min 45 s
Bit rate mode                            : Variable
Bit rate                                 : 126 kb/s
Maximum bit rate                         : 183 kb/s
Channel(s)                               : 2 channels
Channel layout                           : L R
Sampling rate                            : 48.0 kHz
Frame rate                               : 46.875 FPS (1024 SPF)
Compression mode                         : Lossy
Stream size                              : 27.7 MiB (3%)
Language                                 : English
Default                                  : Yes
Alternate group                          : 1
Encoded date                             : UTC 2019-05-31 04:29:32
Tagged date                              : UTC 2019-05-31 04:29:33

Other Files in this Torrent
[DeadFish] Koutetsujou no Kabaneri: Unato Kessen - Part III - Movie [720p][AAC].mp4
beta
Anime DDL+NZB mirror
Current Time: 15/11/2019 12:22



About/FAQs