File Size489.5 MB (513,264,586 bytes)
DownloadClickNUpload | Go4Up | Jheberg | MultiUp | OpenLoad | SolidFiles | ZippyShare
Sendspace: Part1, Part2
Encrypted DownloadDirect
Password:
HashesCRC32: 0DB2E037, MD5: 1C3D4FFB8E6AC16959D3A4938824B2B8, SHA1: 0B8EB9FFEFF23A83FE343A3EFD3734CBD7A5EDD7, SHA256: 12825F919CBCE9F1A560A47DD0C9ED80D769D78FCC87B98D6DD788F36AC53F5C, ED2K: 87F683F0C0E366EA2DBEB3655DB8F617
Screenshots
screenshotscreenshotscreenshotscreenshotscreenshot
Additional Info
General
Complete name                            : [DeadFish] Inazuma Eleven: Orion no Kokuin - 07 [720p][AAC].mp4
Format                                   : MPEG-4
Format profile                           : Base Media
Codec ID                                 : isom (isom/avc1/iso6)
File size                                : 489 MiB
Duration                                 : 22 min 55 s
Overall bit rate mode                    : Variable
Overall bit rate                         : 2 986 kb/s
Encoded date                             : UTC 2018-12-01 05:31:18
Tagged date                              : UTC 2018-12-01 05:31:18

Video
ID                                       : 1
Format                                   : AVC
Format/Info                              : Advanced Video Codec
Format profile                           : High@L4.1
Format settings, CABAC                   : Yes
Format settings, ReFrames                : 4 frames
Codec ID                                 : avc1
Codec ID/Info                            : Advanced Video Coding
Duration                                 : 22 min 54 s
Bit rate mode                            : Variable
Bit rate                                 : 2 855 kb/s
Maximum bit rate                         : 62.5 Mb/s
Width                                    : 1 280 pixels
Height                                   : 720 pixels
Display aspect ratio                     : 16:9
Frame rate mode                          : Constant
Frame rate                               : 23.976 (24000/1001) FPS
Color space                              : YUV
Chroma subsampling                       : 4:2:0
Bit depth                                : 8 bits
Scan type                                : Progressive
Bits/(Pixel*Frame)                       : 0.129
Stream size                              : 468 MiB (96%)
Title                                    : 264@GPAC0.5.2-DEV-rev248-g39d5978-master
Writing library                          : x264 core 146 r2538 121396c
Encoding settings                        : cabac=1 / ref=4 / deblock=1:1:1 / analyse=0x3:0x133 / me=tesa / subme=11 / psy=1 / psy_rd=0.40:0.00 / mixed_ref=1 / me_range=24 / chroma_me=1 / trellis=2 / 8x8dct=1 / cqm=0 / deadzone=21,11 / fast_pskip=0 / chroma_qp_offset=-2 / threads=18 / lookahead_threads=4 / sliced_threads=0 / nr=0 / decimate=1 / interlaced=0 / bluray_compat=0 / constrained_intra=0 / bframes=16 / b_pyramid=0 / b_adapt=2 / b_bias=0 / direct=3 / weightb=1 / open_gop=0 / weightp=2 / keyint=240 / keyint_min=24 / scenecut=40 / intra_refresh=0 / rc_lookahead=60 / rc=crf / mbtree=1 / crf=17.0 / qcomp=0.60 / qpmin=0 / qpmax=69 / qpstep=4 / vbv_maxrate=62500 / vbv_bufsize=62500 / crf_max=0.0 / nal_hrd=vbr / filler=0 / ip_ratio=1.40 / aq=1:0.60
Encoded date                             : UTC 2018-12-01 05:31:18
Tagged date                              : UTC 2018-12-01 05:31:22

Audio
ID                                       : 2
Format                                   : AAC
Format/Info                              : Advanced Audio Codec
Format profile                           : LC
Codec ID                                 : 40
Duration                                 : 22 min 55 s
Bit rate mode                            : Variable
Bit rate                                 : 128 kb/s
Maximum bit rate                         : 153 kb/s
Channel(s)                               : 2 channels
Channel positions                        : Front: L R
Sampling rate                            : 48.0 kHz
Frame rate                               : 46.875 FPS (1024 spf)
Compression mode                         : Lossy
Stream size                              : 21.0 MiB (4%)
Encoded date                             : UTC 2018-12-01 05:01:38
Tagged date                              : UTC 2018-12-01 05:31:22
beta
Anime DDL+NZB mirror
Current Time: 28/03/2020 21:07



About/FAQs