File Size619.6 MB (649,661,315 bytes)
DownloadClickNUpload | Go4Up | Jheberg | MultiUp | OpenLoad
Sendspace: Part1, Part2, Part3
SolidFiles: Part1, Part2
ZippyShare: Part1, Part2
Encrypted DownloadDirect
Password:
HashesCRC32: 8E11AF6B, MD5: DBC298EA83EB79D5C0E63521DE211B2C, SHA1: 0886CF4DDA7CAC97C27A0B077535DC82E0FB20CE, SHA256: 961015084A4FAC8E61779F2FD637CA2C120E5EE11A258C4657432D527D21EDE4, ED2K: F4084BD9B3E360A17F947736416AA051
Screenshots
screenshotscreenshotscreenshotscreenshotscreenshot
Additional Info
General
Complete name                            : [DeadFish] Inazuma Eleven: Orion no Kokuin - 03 [720p][AAC].mp4
Format                                   : MPEG-4
Format profile                           : Base Media
Codec ID                                 : isom (isom/avc1/iso6)
File size                                : 620 MiB
Duration                                 : 22 min 55 s
Overall bit rate mode                    : Variable
Overall bit rate                         : 3 779 kb/s
Encoded date                             : UTC 2018-10-27 19:47:14
Tagged date                              : UTC 2018-10-27 19:47:14

Video
ID                                       : 1
Format                                   : AVC
Format/Info                              : Advanced Video Codec
Format profile                           : High@L4.1
Format settings, CABAC                   : Yes
Format settings, ReFrames                : 4 frames
Codec ID                                 : avc1
Codec ID/Info                            : Advanced Video Coding
Duration                                 : 22 min 55 s
Bit rate mode                            : Variable
Bit rate                                 : 3 648 kb/s
Maximum bit rate                         : 62.5 Mb/s
Width                                    : 1 280 pixels
Height                                   : 720 pixels
Display aspect ratio                     : 16:9
Frame rate mode                          : Constant
Frame rate                               : 23.976 (24000/1001) FPS
Color space                              : YUV
Chroma subsampling                       : 4:2:0
Bit depth                                : 8 bits
Scan type                                : Progressive
Bits/(Pixel*Frame)                       : 0.165
Stream size                              : 598 MiB (97%)
Title                                    : 264@GPAC0.5.2-DEV-rev248-g39d5978-master
Writing library                          : x264 core 146 r2538 121396c
Encoding settings                        : cabac=1 / ref=4 / deblock=1:1:1 / analyse=0x3:0x133 / me=tesa / subme=11 / psy=1 / psy_rd=0.40:0.00 / mixed_ref=1 / me_range=24 / chroma_me=1 / trellis=2 / 8x8dct=1 / cqm=0 / deadzone=21,11 / fast_pskip=0 / chroma_qp_offset=-2 / threads=18 / lookahead_threads=4 / sliced_threads=0 / nr=0 / decimate=1 / interlaced=0 / bluray_compat=0 / constrained_intra=0 / bframes=16 / b_pyramid=0 / b_adapt=2 / b_bias=0 / direct=3 / weightb=1 / open_gop=0 / weightp=2 / keyint=240 / keyint_min=24 / scenecut=40 / intra_refresh=0 / rc_lookahead=60 / rc=crf / mbtree=1 / crf=17.0 / qcomp=0.60 / qpmin=0 / qpmax=69 / qpstep=4 / vbv_maxrate=62500 / vbv_bufsize=62500 / crf_max=0.0 / nal_hrd=vbr / filler=0 / ip_ratio=1.40 / aq=1:0.60
Encoded date                             : UTC 2018-10-27 19:47:14
Tagged date                              : UTC 2018-10-27 19:47:19

Audio
ID                                       : 2
Format                                   : AAC
Format/Info                              : Advanced Audio Codec
Format profile                           : LC
Codec ID                                 : 40
Duration                                 : 22 min 55 s
Bit rate mode                            : Variable
Bit rate                                 : 128 kb/s
Maximum bit rate                         : 155 kb/s
Channel(s)                               : 2 channels
Channel positions                        : Front: L R
Sampling rate                            : 48.0 kHz
Frame rate                               : 46.875 FPS (1024 spf)
Compression mode                         : Lossy
Stream size                              : 21.0 MiB (3%)
Encoded date                             : UTC 2018-10-27 19:11:45
Tagged date                              : UTC 2018-10-27 19:47:19
beta
Anime DDL+NZB mirror
Current Time: 28/03/2020 20:01



About/FAQs