File Size154.4 MB (161,937,901 bytes)
DownloadAnonFiles | EmbedUpload | FileWinds | Jheberg | MirrorStack | MultiUpload | Sendspace | ShareBeast
HashesCRC32: 400E9FC0, MD5: 6AF0BC1BA3CAC83246976F5564E9A1E9, SHA1: D9298A9407B3BC8E8468826D55E1ED4E545619DA, SHA256: 05FF00108D81BCE1A54FF5E1FFA8E135EF673F34504540D26F7DF10EF345100A, ED2K: 61E4BF74934212EB8799D710F2B91A80
Screenshots
screenshotscreenshotscreenshotscreenshotscreenshot
Additional Info
General
Complete name                            : [DeadFish] Girls und Panzer - 02 - OVA [BD][720p][AAC].mp4
Format                                   : MPEG-4
Format profile                           : Base Media
Codec ID                                 : isom
File size                                : 154 MiB
Duration                                 : 13mn 45s
Overall bit rate mode                    : Variable
Overall bit rate                         : 1 568 Kbps
Encoded date                             : UTC 2013-06-25 23:40:51
Tagged date                              : UTC 2013-06-25 23:40:51
Writing application                      : rebox.NET v1.9.5.0 [http://www.clonead.co.uk]

Video
ID                                       : 1
Format                                   : AVC
Format/Info                              : Advanced Video Codec
Format profile                           : High@L4.1
Format settings, CABAC                   : Yes
Format settings, ReFrames                : 5 frames
Codec ID                                 : avc1
Codec ID/Info                            : Advanced Video Coding
Duration                                 : 13mn 45s
Bit rate                                 : 1 411 Kbps
Maximum bit rate                         : 9 241 Kbps
Width                                    : 1 280 pixels
Height                                   : 720 pixels
Display aspect ratio                     : 16:9
Frame rate mode                          : Constant
Frame rate                               : 23.976 fps
Color space                              : YUV
Chroma subsampling                       : 4:2:0
Bit depth                                : 8 bits
Scan type                                : Progressive
Bits/(Pixel*Frame)                       : 0.064
Stream size                              : 139 MiB (90%)
Writing library                          : x264 core 79 r1342kMod e8501ef
Encoding settings                        : cabac=1 / ref=5 / deblock=1:0:0 / analyse=0x3:0x113 / me=umh / subme=8 / psy=1 / psy_rd=1.0:0.0 / mixed_ref=1 / me_range=16 / chroma_me=1 / trellis=1 / 8x8dct=1 / cqm=0 / deadzone=21,11 / chroma_qp_offset=-2 / threads=6 / nr=0 / decimate=1 / mbaff=0 / constrained_intra=0 / bframes=3 / b_pyramid=0 / b_adapt=2 / b_bias=0 / direct=3 / wpredb=1 / wpredp=2 / keyint=250 / keyint_min=25 / scenecut=40 / rc_lookahead=60 / rc=crf / mbtree=1 / crf=19.0000 / qcomp=0.50 / qpmin=10 / qpmax=51 / qpstep=4 / vbv_maxrate=24000 / vbv_bufsize=24000 / ip_ratio=1.40 / aq=1:1.00
Encoded date                             : UTC 2013-06-25 23:40:51
Tagged date                              : UTC 2013-06-25 23:40:56

Audio
ID                                       : 2
Format                                   : AAC
Format/Info                              : Advanced Audio Codec
Format profile                           : LC
Codec ID                                 : 40
Duration                                 : 13mn 45s
Bit rate mode                            : Variable
Bit rate                                 : 154 Kbps
Maximum bit rate                         : 198 Kbps
Channel(s)                               : 2 channels
Channel positions                        : Front: L R
Sampling rate                            : 48.0 KHz
Compression mode                         : Lossy
Stream size                              : 15.2 MiB (10%)
Title                                    : _audio.aac - Imported with GPAC 0.5.1-DEV-rev4246
Encoded date                             : UTC 2013-06-25 23:40:55
Tagged date                              : UTC 2013-06-25 23:40:56
beta
Anime DDL+NZB mirror
Current Time: 14/08/2022 18:36



About/FAQs

Discord