File Size250.8 MB (262,944,730 bytes)
DownloadAnonFiles | EmbedUpload | FileWinds | Jheberg | MirrorStack | MultiUpload | Sendspace
ShareBeast: Part1, Part2
HashesCRC32: 1ACC83B6, MD5: A2D2FDDA45A84AE85F4371FE0C7952B8, SHA1: 1F84EF5137172C9B672764365894A4CBF7ADDDF9, SHA256: 8CE706FE8F23D260D9E4D3C17007FB722E007573C04642754E6BBF75A80751A1, ED2K: A0A6BD7870FCE023A54AD7E117AA18D7
Screenshots
screenshotscreenshotscreenshotscreenshotscreenshot
Additional Info
General
Complete name                            : [DeadFish] Girls und Panzer - 02 - OVA [BD][1080p][AAC].mp4
Format                                   : MPEG-4
Format profile                           : Base Media
Codec ID                                 : isom
File size                                : 251 MiB
Duration                                 : 13mn 45s
Overall bit rate mode                    : Variable
Overall bit rate                         : 2 547 Kbps
Encoded date                             : UTC 2013-06-25 23:24:32
Tagged date                              : UTC 2013-06-25 23:24:32
Writing application                      : rebox.NET v1.9.5.0 [http://www.clonead.co.uk]

Video
ID                                       : 1
Format                                   : AVC
Format/Info                              : Advanced Video Codec
Format profile                           : High@L4.1
Format settings, CABAC                   : Yes
Format settings, ReFrames                : 4 frames
Codec ID                                 : avc1
Codec ID/Info                            : Advanced Video Coding
Duration                                 : 13mn 45s
Bit rate                                 : 2 389 Kbps
Maximum bit rate                         : 18.0 Mbps
Width                                    : 1 920 pixels
Height                                   : 1 080 pixels
Display aspect ratio                     : 16:9
Frame rate mode                          : Constant
Frame rate                               : 23.976 fps
Color space                              : YUV
Chroma subsampling                       : 4:2:0
Bit depth                                : 8 bits
Scan type                                : Progressive
Bits/(Pixel*Frame)                       : 0.048
Stream size                              : 235 MiB (94%)
Writing library                          : x264 core 125 r2200 999b753
Encoding settings                        : cabac=1 / ref=4 / deblock=1:1:1 / analyse=0x3:0x133 / me=umh / subme=10 / psy=1 / psy_rd=0.40:0.00 / mixed_ref=1 / me_range=24 / chroma_me=1 / trellis=2 / 8x8dct=1 / cqm=0 / deadzone=21,11 / fast_pskip=1 / chroma_qp_offset=-2 / threads=6 / lookahead_threads=1 / sliced_threads=0 / nr=0 / decimate=1 / interlaced=0 / bluray_compat=0 / constrained_intra=0 / bframes=10 / b_pyramid=2 / b_adapt=2 / b_bias=0 / direct=3 / weightb=1 / open_gop=0 / weightp=2 / keyint=250 / keyint_min=23 / scenecut=40 / intra_refresh=0 / rc_lookahead=60 / rc=crf / mbtree=1 / crf=19.0 / qcomp=0.60 / qpmin=0 / qpmax=69 / qpstep=4 / ip_ratio=1.40 / aq=1:0.60
Encoded date                             : UTC 2013-06-25 23:24:32
Tagged date                              : UTC 2013-06-25 23:24:38

Audio
ID                                       : 2
Format                                   : AAC
Format/Info                              : Advanced Audio Codec
Format profile                           : LC
Codec ID                                 : 40
Duration                                 : 13mn 45s
Bit rate mode                            : Variable
Bit rate                                 : 154 Kbps
Maximum bit rate                         : 198 Kbps
Channel(s)                               : 2 channels
Channel positions                        : Front: L R
Sampling rate                            : 48.0 KHz
Compression mode                         : Lossy
Stream size                              : 15.2 MiB (6%)
Title                                    : _audio.aac - Imported with GPAC 0.5.1-DEV-rev4246
Encoded date                             : UTC 2013-06-25 23:24:36
Tagged date                              : UTC 2013-06-25 23:24:38
beta
Anime DDL+NZB mirror
Current Time: 09/08/2022 02:38



About/FAQs

Discord