File Size239.4 MB (251,075,854 bytes)
DownloadAnonFiles | DevHost | Jheberg | MultiUp | Sendspace | SolidFiles
ShareBeast: Part1, Part2
HashesCRC32: B773769F, MD5: 06154E1EEAAC9E47B266710C488ADBC2, SHA1: 0214AC4B898D1DCD3ED8F1FB649574B3C274E8C4, ED2K: 28CC9E411BEC23F8F66A333B97CED4A4
Screenshots
screenshotscreenshotscreenshotscreenshotscreenshot
Additional Info
General
Complete name                            : [DeadFish] Gekkan Shoujo Nozaki-kun - 08 [720p][AAC].mp4
Format                                   : MPEG-4
Format profile                           : Base Media
Codec ID                                 : isom
File size                                : 239 MiB
Duration                                 : 23mn 57s
Overall bit rate mode                    : Variable
Overall bit rate                         : 1 398 Kbps
Encoded date                             : UTC 2014-08-23 20:18:54
Tagged date                              : UTC 2014-08-23 20:18:54

Video
ID                                       : 1
Format                                   : AVC
Format/Info                              : Advanced Video Codec
Format profile                           : High@L4.1
Format settings, CABAC                   : Yes
Format settings, ReFrames                : 9 frames
Codec ID                                 : avc1
Codec ID/Info                            : Advanced Video Coding
Duration                                 : 23mn 56s
Bit rate                                 : 1 265 Kbps
Maximum bit rate                         : 8 398 Kbps
Width                                    : 1 280 pixels
Height                                   : 720 pixels
Display aspect ratio                     : 16:9
Frame rate mode                          : Constant
Frame rate                               : 29.970 fps
Color space                              : YUV
Chroma subsampling                       : 4:2:0
Bit depth                                : 8 bits
Scan type                                : Progressive
Bits/(Pixel*Frame)                       : 0.046
Stream size                              : 217 MiB (91%)
Writing library                          : x264 core 125 r2200 999b753
Encoding settings                        : cabac=1 / ref=9 / deblock=1:1:1 / analyse=0x3:0x133 / me=umh / subme=10 / psy=1 / psy_rd=0.40:0.00 / mixed_ref=1 / me_range=24 / chroma_me=1 / trellis=2 / 8x8dct=1 / cqm=0 / deadzone=21,11 / fast_pskip=1 / chroma_qp_offset=-2 / threads=12 / lookahead_threads=2 / sliced_threads=0 / nr=0 / decimate=1 / interlaced=0 / bluray_compat=0 / constrained_intra=0 / bframes=10 / b_pyramid=2 / b_adapt=2 / b_bias=0 / direct=3 / weightb=1 / open_gop=0 / weightp=2 / keyint=250 / keyint_min=25 / scenecut=40 / intra_refresh=0 / rc_lookahead=60 / rc=crf / mbtree=1 / crf=19.0 / qcomp=0.60 / qpmin=0 / qpmax=69 / qpstep=4 / ip_ratio=1.40 / aq=1:0.60
Encoded date                             : UTC 2014-08-24 19:54:10
Tagged date                              : UTC 2014-08-23 20:18:58

Audio
ID                                       : 2
Format                                   : AAC
Format/Info                              : Advanced Audio Codec
Format profile                           : LC
Codec ID                                 : 40
Duration                                 : 23mn 57s
Bit rate mode                            : Variable
Bit rate                                 : 128 Kbps
Maximum bit rate                         : 137 Kbps
Channel(s)                               : 2 channels
Channel positions                        : Front: L R
Sampling rate                            : 44.1 KHz
Compression mode                         : Lossy
Stream size                              : 21.9 MiB (9%)
Title                                    : Imported with GPAC 0.4.6-DEV (internal rev. 5)
Encoded date                             : UTC 2014-08-23 20:18:58
Tagged date                              : UTC 2014-08-23 20:18:58
beta
Anime DDL+NZB mirror
Current Time: 12/07/2024 23:44



About/FAQs

Discord