File Size49.02 MB (51,400,622 bytes)
DownloadAnonFiles | Go4Up | Jheberg | MultiUp | Sendspace | ShareBeast | SolidFiles | UsersFiles
HashesCRC32: 2C8981C4, MD5: 6EC7270942536E5D2A2283BC1F095869, SHA1: B07BBA67358DFA63B643A23C618B1E9EEF6B53A5, ED2K: FC020608D4192E48007EACDEF536FF0D
Screenshots
screenshotscreenshotscreenshot
Additional Info
General
Complete name                            : [DeadFish] Gekkan Shoujo Nozaki-kun - 01 - Special [BD][720p][AAC].mp4
Format                                   : MPEG-4
Format profile                           : Base Media
Codec ID                                 : isom
File size                                : 49.0 MiB
Duration                                 : 3mn 2s
Overall bit rate mode                    : Variable
Overall bit rate                         : 2 255 Kbps
Encoded date                             : UTC 2014-11-14 03:12:09
Tagged date                              : UTC 2014-11-14 03:12:09
Writing application                      : rebox.NET v1.9.5.0 [http://www.clonead.co.uk]

Video
ID                                       : 1
Format                                   : AVC
Format/Info                              : Advanced Video Codec
Format profile                           : High@L4.1
Format settings, CABAC                   : Yes
Format settings, ReFrames                : 9 frames
Codec ID                                 : avc1
Codec ID/Info                            : Advanced Video Coding
Duration                                 : 3mn 2s
Bit rate mode                            : Variable
Bit rate                                 : 2 124 Kbps
Maximum bit rate                         : 62.5 Mbps
Width                                    : 1 280 pixels
Height                                   : 720 pixels
Display aspect ratio                     : 16:9
Frame rate mode                          : Constant
Frame rate                               : 23.976 fps
Color space                              : YUV
Chroma subsampling                       : 4:2:0
Bit depth                                : 8 bits
Scan type                                : Progressive
Bits/(Pixel*Frame)                       : 0.096
Stream size                              : 46.2 MiB (94%)
Writing library                          : x264 core 135 r2345 f0c1c53
Encoding settings                        : cabac=1 / ref=9 / deblock=1:1:1 / analyse=0x3:0x133 / me=tesa / subme=11 / psy=1 / psy_rd=0.40:0.00 / mixed_ref=1 / me_range=24 / chroma_me=1 / trellis=2 / 8x8dct=1 / cqm=0 / deadzone=21,11 / fast_pskip=0 / chroma_qp_offset=-2 / threads=12 / lookahead_threads=3 / sliced_threads=0 / nr=0 / decimate=1 / interlaced=0 / bluray_compat=0 / constrained_intra=0 / bframes=16 / b_pyramid=0 / b_adapt=2 / b_bias=0 / direct=3 / weightb=1 / open_gop=0 / weightp=2 / keyint=240 / keyint_min=24 / scenecut=40 / intra_refresh=0 / rc_lookahead=60 / rc=crf / mbtree=1 / crf=14.0 / qcomp=0.60 / qpmin=0 / qpmax=69 / qpstep=4 / vbv_maxrate=62500 / vbv_bufsize=62500 / crf_max=0.0 / nal_hrd=vbr / ip_ratio=1.40 / aq=1:0.60
Encoded date                             : UTC 2014-11-14 03:12:09
Tagged date                              : UTC 2014-11-14 03:12:10

Audio
ID                                       : 2
Format                                   : AAC
Format/Info                              : Advanced Audio Codec
Format profile                           : LC
Codec ID                                 : 40
Duration                                 : 3mn 2s
Bit rate mode                            : Variable
Bit rate                                 : 128 Kbps
Maximum bit rate                         : 134 Kbps
Channel(s)                               : 2 channels
Channel positions                        : Front: L R
Sampling rate                            : 48.0 KHz
Compression mode                         : Lossy
Stream size                              : 2.78 MiB (6%)
Title                                    : _audio.aac - Imported with GPAC 0.5.1-DEV-rev4246
Encoded date                             : UTC 2014-11-14 03:12:10
Tagged date                              : UTC 2014-11-14 03:12:10
beta
Anime DDL+NZB mirror
Current Time: 13/07/2024 00:59



About/FAQs

Discord