File Size504.3 MB (528,825,822 bytes)
DownloadClickNUpload | Go4Up | Jheberg | MultiUp
  • BdUpload
  • DownAce
  • Fichier
  • Filerio
  • FilesCdn
  • IndiShare
  • Kbagi
  • Turbobit
  • UploadRocket
  • Uploading
  • Uppit
| OpenLoad | Upfile.mobi
Sendspace: Part1, Part2
SolidFiles: Part1, Part2
Encrypted DownloadDirect
Password:
HashesCRC32: 9A5CA983, MD5: 1DD42D0131CE5C2864313090734BBEF3, SHA1: EEF751F69DF6A098430D6F4BCD29BFB79F85BBAF, SHA256: 033C446005FD52F1B2780BD03D197945242A842453976040E93A16655A0BCA04, ED2K: B5AC69C94305B0821F5CD562E404035A
Screenshots
screenshotscreenshotscreenshotscreenshotscreenshot
Additional Info
General
Complete name                            : [DeadFish] Ballroom e Youkoso - 23 [720p][AAC].mp4
Format                                   : MPEG-4
Format profile                           : Base Media
Codec ID                                 : isom (isom/avc1)
File size                                : 504 MiB
Duration                                 : 24 min 10 s
Overall bit rate mode                    : Variable
Overall bit rate                         : 2 918 kb/s
Encoded date                             : UTC 2018-01-23 14:38:58
Tagged date                              : UTC 2018-01-23 14:38:58

Video
ID                                       : 1
Format                                   : AVC
Format/Info                              : Advanced Video Codec
Format profile                           : High@L4.1
Format settings, CABAC                   : Yes
Format settings, ReFrames                : 4 frames
Codec ID                                 : avc1
Codec ID/Info                            : Advanced Video Coding
Duration                                 : 24 min 9 s
Bit rate                                 : 2 786 kb/s
Maximum bit rate                         : 14.2 Mb/s
Width                                    : 1 280 pixels
Height                                   : 720 pixels
Display aspect ratio                     : 16:9
Frame rate mode                          : Constant
Frame rate                               : 23.976 (24000/1001) FPS
Color space                              : YUV
Chroma subsampling                       : 4:2:0
Bit depth                                : 8 bits
Scan type                                : Progressive
Bits/(Pixel*Frame)                       : 0.126
Stream size                              : 482 MiB (95%)
Title                                    : Imported with GPAC 0.4.6-DEV (build 1)
Writing library                          : x264 core 79 r1342kMod e8501ef
Encoding settings                        : cabac=1 / ref=4 / deblock=1:0:0 / analyse=0x3:0x113 / me=hex / subme=7 / psy=1 / psy_rd=1.0:0.0 / mixed_ref=1 / me_range=16 / chroma_me=1 / trellis=1 / 8x8dct=1 / cqm=0 / deadzone=21,11 / chroma_qp_offset=-2 / threads=3 / nr=0 / decimate=1 / mbaff=0 / constrained_intra=0 / bframes=3 / b_pyramid=0 / b_adapt=1 / b_bias=0 / direct=1 / wpredb=1 / wpredp=2 / keyint=250 / keyint_min=25 / scenecut=40 / rc_lookahead=40 / rc=crf / mbtree=1 / crf=14.0000 / qcomp=0.60 / qpmin=10 / qpmax=51 / qpstep=4 / vbv_maxrate=62500 / vbv_bufsize=62500 / ip_ratio=1.40 / aq=1:1.00
Encoded date                             : UTC 2018-01-23 14:38:58
Tagged date                              : UTC 2018-01-23 14:40:16

Audio
ID                                       : 2
Format                                   : AAC
Format/Info                              : Advanced Audio Codec
Format profile                           : LC
Codec ID                                 : 40
Duration                                 : 24 min 10 s
Bit rate mode                            : Variable
Bit rate                                 : 128 kb/s
Maximum bit rate                         : 157 kb/s
Channel(s)                               : 2 channels
Channel positions                        : Front: L R
Sampling rate                            : 48.0 kHz
Frame rate                               : 46.875 FPS (1024 spf)
Compression mode                         : Lossy
Stream size                              : 22.1 MiB (4%)
Encoded date                             : UTC 2018-01-23 14:40:12
Tagged date                              : UTC 2018-01-23 14:40:16

Other Files in this Torrent
[DeadFish] Ballroom e Youkoso - 23 [720p][AAC].mp4
beta
Anime DDL+NZB mirror
Current Time: 26/02/2020 22:08



About/FAQs