[DeadFish] Aikatsu Friends! - 41 [720p][AAC].mp4


File Size727.0 MB (762,307,500 bytes)
DownloadClickNUpload | Go4Up | Jheberg | OpenLoad
MultiUp: Part1, Part2
Sendspace: Part1, Part2, Part3
ZippyShare: Part1, Part2
HashesCRC32: 14CC3206, MD5: 034317B719CAF6D91863EE9D0C66C736, SHA1: CF6053389A5E132D0F7077B48B3E030A87FF7A00, SHA256: 50CAFA260C3B23930D811F06879114B61442FEA8675769EF1245ED87EB80F2A2, ED2K: 334D7424AF2B9D76A8467E9410CBC60C
Screenshots
screenshotscreenshotscreenshotscreenshotscreenshot
Additional Info
General
Complete name                            : [DeadFish] Aikatsu Friends! - 41 [720p][AAC].mp4
Format                                   : MPEG-4
Format profile                           : Base Media
Codec ID                                 : isom (isom/avc1)
File size                                : 727 MiB
Duration                                 : 24 min 24 s
Overall bit rate mode                    : Variable
Overall bit rate                         : 4 163 kb/s
Encoded date                             : UTC 2019-01-31 14:36:18
Tagged date                              : UTC 2019-01-31 14:36:18

Video
ID                                       : 1
Format                                   : AVC
Format/Info                              : Advanced Video Codec
Format profile                           : High@L4.1
Format settings                          : CABAC / 4 Ref Frames
Format settings, CABAC                   : Yes
Format settings, ReFrames                : 4 frames
Codec ID                                 : avc1
Codec ID/Info                            : Advanced Video Coding
Duration                                 : 24 min 24 s
Bit rate                                 : 4 032 kb/s
Maximum bit rate                         : 21.8 Mb/s
Width                                    : 1 280 pixels
Height                                   : 720 pixels
Display aspect ratio                     : 16:9
Frame rate mode                          : Constant
Frame rate                               : 23.976 (24000/1001) FPS
Color space                              : YUV
Chroma subsampling                       : 4:2:0
Bit depth                                : 8 bits
Scan type                                : Progressive
Bits/(Pixel*Frame)                       : 0.182
Stream size                              : 704 MiB (97%)
Title                                    : Imported with GPAC 0.4.6-DEV (build 1)
Writing library                          : x264 core 79 r1342kMod e8501ef
Encoding settings                        : cabac=1 / ref=4 / deblock=1:0:0 / analyse=0x3:0x113 / me=hex / subme=7 / psy=1 / psy_rd=1.0:0.0 / mixed_ref=1 / me_range=16 / chroma_me=1 / trellis=1 / 8x8dct=1 / cqm=0 / deadzone=21,11 / chroma_qp_offset=-2 / threads=3 / nr=0 / decimate=1 / mbaff=0 / constrained_intra=0 / bframes=3 / b_pyramid=0 / b_adapt=1 / b_bias=0 / direct=1 / wpredb=1 / wpredp=2 / keyint=250 / keyint_min=25 / scenecut=40 / rc_lookahead=40 / rc=crf / mbtree=1 / crf=17.0000 / qcomp=0.60 / qpmin=10 / qpmax=51 / qpstep=4 / vbv_maxrate=62500 / vbv_bufsize=62500 / ip_ratio=1.40 / aq=1:1.00
Encoded date                             : UTC 2019-01-31 14:36:18
Tagged date                              : UTC 2019-01-31 14:37:37
Codec configuration box                  : avcC

Audio
ID                                       : 2
Format                                   : AAC LC
Format/Info                              : Advanced Audio Codec Low Complexity
Codec ID                                 : mp4a-40-2
Duration                                 : 24 min 24 s
Bit rate mode                            : Variable
Bit rate                                 : 128 kb/s
Maximum bit rate                         : 153 kb/s
Channel(s)                               : 2 channels
Channel layout                           : L R
Sampling rate                            : 48.0 kHz
Frame rate                               : 46.875 FPS (1024 SPF)
Compression mode                         : Lossy
Stream size                              : 22.4 MiB (3%)
Encoded date                             : UTC 2019-01-31 14:37:33
Tagged date                              : UTC 2019-01-31 14:37:37

Other Files in this Torrent
[DeadFish] Aikatsu Friends! - 41 [720p][AAC].mp4
beta
Anime DDL+NZB mirror
Current Time: 23/02/2020 17:02



About/FAQs