File Size1.491 GB (1,601,440,682 bytes)
DownloadClickNUpload
DownloadGG: Part1, Part2
KrakenFiles: Part1, Part2
MultiUp: Part1
  • BdUpload
  • DownAce
  • Fichier
  • FileCloud
  • Filerio
  • FilesCdn
  • IndiShare
  • Kbagi
  • Turbobit
  • UpToBox
  • Uppit
, Part2
  • BdUpload
  • DownAce
  • Fichier
  • FileCloud
  • Filerio
  • FilesCdn
  • IndiShare
  • Kbagi
  • Turbobit
  • UpToBox
  • Uppit
, Part3
  • BdUpload
  • DownAce
  • Fichier
  • FileCloud
  • Filerio
  • FilesCdn
  • IndiShare
  • Kbagi
  • Turbobit
  • UpToBox
  • Uppit
, Part4
  • BdUpload
  • DownAce
  • Fichier
  • FileCloud
  • Filerio
  • FilesCdn
  • IndiShare
  • Kbagi
  • Turbobit
  • UpToBox
  • Uppit

ZippyShare: Part1, Part2, Part3, Part4
HashesCRC32: 232305E4, MD5: DF73EF95C11C886F2DBDB2643F1047EE, SHA1: 4981538070DCDB58B52CCA7D72C09B441DC57A93, SHA256: 29AF30FEE42AA1DFEB009A1869F6ACE0F2F4539FCC12DB167C65A21FB0C1E315, ED2K: B63C794A1C17E19E91C0E7EC3DE9B338
Screenshots
screenshotscreenshotscreenshotscreenshotscreenshot
SubtitlesAll Attachments | Signs & Songs [eng, ASS], Dialogue [eng, ASS]
Additional Info
General
Unique ID                                : 18593027390662087190915471203411175160 (0xDFCE306B0EF164A82F98410F40426F8)
Complete name                            : Date A Live S04E06 [WEB-DL 1080p] [Dual-Audio].mkv
Format                                   : Matroska
Format version                           : Version 4
File size                                : 1.49 GiB
Duration                                 : 23 min 43 s
Overall bit rate                         : 8 999 kb/s
Encoded date                             : UTC 2022-05-27 21:53:10
Writing application                      : mkvmerge v58.0.0 ('Supper's Ready') 64-bit
Writing library                          : libebml v1.4.2 + libmatroska v1.6.4
Attachments                              : AGBookRounded-Medium_1.ttf / Amble-Bold_0.ttf / Amiko-Bold_0.ttf / AmysHandwriting_0.ttf / Balmy Beta.ttf / Bestina.ttf / BlackChancery2.ttf / boopee_regular.ttf / BOSTHONBRUSH.ttf / BPreplay-Bold.ttf / BPreplay-Bold_0.ttf / BRITANIC.TTF / Brushcut.ttf / CenturyOldStyleStd-Bold.ttf / Chapaza-Regular.ttf / Comme-Bold.ttf / Corporate-Logo-Rounded.ttf / CrocodileFeet-Regular.ttf / DryBrush.ttf / Emotion Engine.otf / FiraSans-Bold_0.ttf / GothamRounded-Bold_0.ttf / Heuristica-Bold.ttf / LatoWeb-Bold.ttf / LatoWeb-BoldItalic.ttf / Learn Share Colaborate Bold.otf / LemonSqueezy_0.ttf / LionTeen.ttf / Mermaid1001.ttf / MixSerif.ttf / Modest Felt.otf / msyh.ttc / msyhbd.ttc / NewEraCasual-Bold.ttf / OpenSans-Semibold.ttf / Paper Johnny Eins.ttf / PTSans-Bold.ttf / Qlassik_TB.ttf / SourceSansPro-Bold.ttf / SourceSansPro-Bold_0.ttf / SourceSansPro-Semibold_1.ttf / Splatch.ttf / THERIFV2.TTF / TheSimpleOne.ttf / yumindb.ttf / Zapf Humanist 601 Bold BT.ttf / Zapf Humanist 601 Bold Italic BT.ttf / AGBookRounded-Medium_1.ttf / Amble-Bold_0.ttf / Amiko-Bold_0.ttf / AmysHandwriting_0.ttf / Balmy Beta.ttf / Bestina.ttf / BlackChancery2.ttf / boopee_regular.ttf / BOSTHONBRUSH.ttf / BPreplay-Bold.ttf / BPreplay-Bold_0.ttf / BRITANIC.TTF / Brushcut.ttf / CenturyOldStyleStd-Bold.ttf / Chapaza-Regular.ttf / Comme-Bold.ttf / CrocodileFeet-Regular.ttf / DryBrush.ttf / FiraSans-Bold_0.ttf / GothamRounded-Bold_0.ttf / Heuristica-Bold.ttf / LatoWeb-Bold.ttf / LatoWeb-BoldItalic.ttf / LemonSqueezy_0.ttf / LionTeen.ttf / Mermaid1001.ttf / MixSerif.ttf / NewEraCasual-Bold.ttf / OpenSans-Semibold.ttf / PTSans-Bold.ttf / Qlassik_TB.ttf / SourceSansPro-Bold.ttf / SourceSansPro-Bold_0.ttf / SourceSansPro-Semibold_1.ttf / Splatch.ttf / TheSimpleOne.ttf / Zapf Humanist 601 Bold BT.ttf / Zapf Humanist 601 Bold Italic BT.ttf / msyhbd.ttc / Emotion Engine.otf / Learn Share Colaborate Bold.otf / Modest Felt.otf / Roboto-Medium.ttf / Roboto-MediumItalic.ttf / arial.ttf / arialbd.ttf / comic.ttf / comicbd.ttf / times.ttf / timesbd.ttf / trebuc.ttf / trebucbd.ttf / verdana.ttf / verdanab.ttf

Video
ID                                       : 1
Format                                   : AVC
Format/Info                              : Advanced Video Codec
Format profile                           : High@L4
Format settings                          : CABAC / 4 Ref Frames
Format settings, CABAC                   : Yes
Format settings, Reference frames        : 4 frames
Codec ID                                 : V_MPEG4/ISO/AVC
Duration                                 : 23 min 40 s
Bit rate                                 : 8 000 kb/s
Width                                    : 1 920 pixels
Height                                   : 1 080 pixels
Display aspect ratio                     : 16:9
Frame rate mode                          : Constant
Frame rate                               : 23.976 (24000/1001) FPS
Color space                              : YUV
Chroma subsampling                       : 4:2:0
Bit depth                                : 8 bits
Scan type                                : Progressive
Bits/(Pixel*Frame)                       : 0.161
Stream size                              : 1.32 GiB (88%)
Writing library                          : x264 core 142
Encoding settings                        : cabac=1 / ref=4 / deblock=1:1:1 / analyse=0x3:0x113 / me=umh / subme=8 / psy=1 / psy_rd=0.40:0.00 / mixed_ref=1 / me_range=16 / chroma_me=1 / trellis=1 / 8x8dct=1 / cqm=0 / deadzone=21,11 / fast_pskip=1 / chroma_qp_offset=-2 / threads=12 / lookahead_threads=2 / sliced_threads=0 / nr=0 / decimate=1 / interlaced=0 / bluray_compat=0 / constrained_intra=0 / bframes=0 / weightp=2 / keyint=96 / keyint_min=48 / scenecut=40 / intra_refresh=0 / rc_lookahead=48 / rc=2pass / mbtree=1 / bitrate=8000 / ratetol=1.0 / qcomp=0.60 / qpmin=0 / qpmax=69 / qpstep=4 / cplxblur=20.0 / qblur=0.5 / vbv_maxrate=12000 / vbv_bufsize=18000 / nal_hrd=none / filler=0 / ip_ratio=1.40 / aq=1:0.60
Language                                 : Japanese
Default                                  : Yes
Forced                                   : No

Audio #1
ID                                       : 2
Format                                   : AAC LC
Format/Info                              : Advanced Audio Codec Low Complexity
Codec ID                                 : A_AAC-2
Duration                                 : 23 min 39 s
Bit rate                                 : 256 kb/s
Channel(s)                               : 2 channels
Channel layout                           : L R
Sampling rate                            : 48.0 kHz
Frame rate                               : 46.875 FPS (1024 SPF)
Compression mode                         : Lossy
Delay relative to video                  : 12 ms
Stream size                              : 43.3 MiB (3%)
Title                                    : ENG
Language                                 : English
Default                                  : Yes
Forced                                   : No

Audio #2
ID                                       : 3
Format                                   : AAC LC
Format/Info                              : Advanced Audio Codec Low Complexity
Codec ID                                 : A_AAC-2
Duration                                 : 23 min 40 s
Bit rate                                 : 256 kb/s
Channel(s)                               : 2 channels
Channel layout                           : L R
Sampling rate                            : 48.0 kHz
Frame rate                               : 46.875 FPS (1024 SPF)
Compression mode                         : Lossy
Delay relative to video                  : 5 ms
Stream size                              : 43.3 MiB (3%)
Title                                    : JPN
Language                                 : Japanese
Default                                  : No
Forced                                   : No

Text #1
ID                                       : 4
Format                                   : ASS
Codec ID                                 : S_TEXT/ASS
Codec ID/Info                            : Advanced Sub Station Alpha
Duration                                 : 21 min 40 s
Bit rate                                 : 56 b/s
Count of elements                        : 87
Compression mode                         : Lossless
Stream size                              : 9.05 KiB (0%)
Title                                    : Signs & Songs
Language                                 : English
Default                                  : Yes
Forced                                   : Yes

Text #2
ID                                       : 5
Format                                   : ASS
Codec ID                                 : S_TEXT/ASS
Codec ID/Info                            : Advanced Sub Station Alpha
Duration                                 : 23 min 37 s
Bit rate                                 : 132 b/s
Count of elements                        : 341
Compression mode                         : Lossless
Stream size                              : 22.9 KiB (0%)
Title                                    : Dialogue
Language                                 : English
Default                                  : No
Forced                                   : No

Menu
00:00:00.000                             : Part A
00:01:40.017                             : OP
00:03:09.982                             : Part B
00:15:21.964                             : Part C
00:21:54.982                             : ED
00:23:24.988                             : Preview
beta
Anime DDL+NZB mirror
Current Time: 27/09/2022 17:35



About/FAQs

Discord