File Size1.100 GB (1,181,112,547 bytes)
DownloadClickNUpload | DropAPK
DownloadGG: Part1, Part2
MultiUp: Part1
  • BdUpload
  • DownAce
  • Fichier
  • FileCloud
  • Filerio
  • FilesCdn
  • IndiShare
  • Kbagi
  • Turbobit
  • UpToBox
  • Uppit
, Part2
  • BdUpload
  • DownAce
  • Fichier
  • FileCloud
  • Filerio
  • FilesCdn
  • IndiShare
  • Kbagi
  • Turbobit
  • UpToBox
  • Uppit
, Part3
  • BdUpload
  • DownAce
  • Fichier
  • FileCloud
  • Filerio
  • FilesCdn
  • IndiShare
  • Kbagi
  • Turbobit
  • UpToBox
  • Uppit

SolidFiles: Part1, Part2, Part3
ZippyShare: Part1, Part2, Part3
HashesCRC32: F96B81AB, MD5: 21AE651F0AD84717A4A3EDF7319154BE, SHA1: 8829FB39BD9F60D273B9418795F0710223F9C9A5, SHA256: 53EDEB35814589B1700579C80E780D39750833239EDDD66E559A889A11B4B6C7, ED2K: 3791584763CA9297E88D3FD92306A445
Screenshots
screenshotscreenshotscreenshotscreenshotscreenshot
SubtitlesAll Attachments | English [eng, ASS]
Additional Info
General
Unique ID                                : 85723303003253650997305477936224114715 (0x407DB5267DAC26E733DF9601430F981B)
Complete name                            : [DameDesuYo] Kobayashi-san Chi no Maid Dragon S - 10 (1920x1080 10bit AAC) [F96B81AB].mkv
Format                                   : Matroska
Format version                           : Version 4
File size                                : 1.10 GiB
Duration                                 : 23 min 40 s
Overall bit rate                         : 6 652 kb/s
Movie name                               : Kobayashi-san Chi no Maid Dragon S - 10 - Kanna's Summer Vacation (Bilingual Broadcast!?)
Writing application                      : mkvmerge v61.0.0 ('So') 64-bit
Writing library                          : libebml v1.4.2 + libmatroska v1.6.4
Attachments                              : ARIAL.TTF / CRONOSPRO-BOLD.OTF / CRONOSPRO-BOLDIT.OTF / 28 Days Later.ttf / Abscissa.ttf / AnotherTag-2Onm8.otf / Arnold 2.1.ttf / AveriaSans-Bold.otf / Barthowheel Regular.otf / Black Metal Sans.ttf / Blue HighwayV2.otf / Bopollux-6Oq.ttf / CALIFB.TTF / Cantarell-Bold.ttf / elmerp.ttf / Galla.ttf / GrilledCheese BTN Cn.otf / Hearts BV.ttf / Hira v2 W4.otf / homework smart.otf / Hzs_Medrano.ttf / Jungle LIFE.ttf / KaishoMCBK1Pro-DeBold.otf / Krylongothic-3z1L.ttf / LLCharlotte.ttf / Maiandra GD Demi Bold.otf / Margarine.otf / NIS-NBK WIN v999 Light.otf / PresentLTStd-Black.otf / RotisSansSerifStd-Light.otf / Seeing Stars.ttf / Simply Rounded.ttf / Simpsonfont-p07r.ttf / SL Mythological Silhouettes.ttf / StreetSoul-ovXd.ttf / SubSymbol.otf / TektonPro-Regular.otf / Throw My Hands Up in the Air.otf / Vogel Normal.ttf / WelcomeToTexas-Agqm.otf / Writers2-Map.ttf / ASUL-BOLD.TTF / DFSHINTEN-W5-WINP-RKSJ-H.TTF / FREDOKAONE-REGULAR.TTF / KBPLANETEARTH.TTF

Video
ID                                       : 2
Format                                   : AVC
Format/Info                              : Advanced Video Codec
Format profile                           : High 10@L5.1
Format settings                          : CABAC / 16 Ref Frames
Format settings, CABAC                   : Yes
Format settings, ReFrames                : 16 frames
Codec ID                                 : V_MPEG4/ISO/AVC
Duration                                 : 23 min 40 s
Bit rate                                 : 6 250 kb/s
Width                                    : 1 920 pixels
Height                                   : 1 080 pixels
Display aspect ratio                     : 16:9
Frame rate mode                          : Constant
Frame rate                               : 23.976 (24000/1001) FPS
Color space                              : YUV
Chroma subsampling                       : 4:2:0
Bit depth                                : 10 bits
Scan type                                : Progressive
Bits/(Pixel*Frame)                       : 0.126
Stream size                              : 1.03 GiB (94%)
Writing library                          : x264 core 164 r3065 ae03d92
Encoding settings                        : cabac=1 / ref=16 / deblock=1:-2:-2 / analyse=0x3:0x133 / me=tesa / subme=10 / psy=1 / psy_rd=0.90:0.00 / mixed_ref=1 / me_range=32 / chroma_me=1 / trellis=2 / 8x8dct=1 / cqm=0 / deadzone=21,11 / fast_pskip=0 / chroma_qp_offset=-2 / threads=34 / lookahead_threads=8 / sliced_threads=0 / nr=0 / decimate=0 / interlaced=0 / bluray_compat=0 / constrained_intra=0 / bframes=16 / b_pyramid=2 / b_adapt=2 / b_bias=0 / direct=1 / weightb=1 / open_gop=0 / weightp=2 / keyint=240 / keyint_min=23 / scenecut=40 / intra_refresh=0 / rc_lookahead=60 / rc=crf / mbtree=1 / crf=15.0 / qcomp=0.72 / qpmin=0 / qpmax=81 / qpstep=4 / ip_ratio=1.40 / aq=3:0.95
Language                                 : Japanese
Default                                  : Yes
Forced                                   : No
Color range                              : Limited
Color primaries                          : BT.709
Transfer characteristics                 : BT.709
Matrix coefficients                      : BT.709

Audio
ID                                       : 1
Format                                   : AAC LC
Format/Info                              : Advanced Audio Codec Low Complexity
Codec ID                                 : A_AAC-2
Duration                                 : 23 min 40 s
Bit rate                                 : 274 kb/s
Channel(s)                               : 2 channels
Channel layout                           : L R
Sampling rate                            : 48.0 kHz
Frame rate                               : 46.875 FPS (1024 SPF)
Compression mode                         : Lossy
Stream size                              : 46.4 MiB (4%)
Title                                    : Japanese
Writing library                          : qaac 2.71, CoreAudioToolbox 7.10.6.0
Language                                 : Japanese
Default                                  : Yes
Forced                                   : No
Encoder Settings                         : AAC-LC Encoder, TVBR q127, Quality 96

Text
ID                                       : 3
Format                                   : ASS
Codec ID                                 : S_TEXT/ASS
Codec ID/Info                            : Advanced Sub Station Alpha
Duration                                 : 23 min 25 s
Bit rate                                 : 28.5 kb/s
Count of elements                        : 10960
Compression mode                         : Lossless
Stream size                              : 4.78 MiB (0%)
Title                                    : English
Language                                 : English
Default                                  : Yes
Forced                                   : No

Menu
00:00:00.000                             : Intro
00:00:57.040                             : OP
00:02:27.000                             : Episode
00:21:50.000                             : ED
00:23:19.960                             : Preview
beta
Anime DDL+NZB mirror
Current Time: 02/12/2021 10:11



About/FAQs

Discord