[DaddySubs] Nanatsu no Taizai - Fundo no Shinpan - 01 [1080p x265 10bits][Eng-Subtitles].mkv


File Size317.2 MB (332,606,862 bytes)
DownloadAnonFiles | ClickNUpload | DropAPK | Free | MultiUp
  • BdUpload
  • DownAce
  • Fichier
  • FileCloud
  • Filerio
  • FilesCdn
  • IndiShare
  • Kbagi
  • Turbobit
  • UpToBox
  • Uppit
| SolidFiles | ZippyShare
HashesCRC32: D2C639C9, MD5: C3FCBF0899F244325EBE82F0BEE40D29, SHA1: 70B3BDE345CA1BFCE16BE41F2DC9306296F07B59, SHA256: 55F766FAAA9CC56F00A725DA4DBBCFBED044278BA7835BA1260B900A6B075314, ED2K: 92562AD00B435B424C6958A0F07B9C87
Screenshots
screenshotscreenshotscreenshotscreenshotscreenshot
SubtitlesAll Attachments | eng [ASS]
Additional Info
General
Unique ID                                : 325189973093749466924878596208122475991 (0xF4A54F88B24E45AAC75CBB9FA75535D7)
Complete name                            : [DaddySubs] Nanatsu no Taizai - Fundo no Shinpan - 01 [1080p x265 10bits][Eng-Subtitles].mkv
Format                                   : Matroska
Format version                           : Version 4
File size                                : 317 MiB
Duration                                 : 24 min 9 s
Overall bit rate                         : 1 835 kb/s
Writing application                      : Lavf58.49.100
Writing library                          : Lavf58.49.100
Copyright                                : Luxury
ErrorDetectionType                       : Per level 1
Attachments                              : Beauty Honey.ttf / FOT-TelopMinProStrp-H.ttf / GenBkBasB.ttf / GenBkBasR.ttf / Polo Brush.ttf / ROSARIO-BOLD.OTF / ROSARIO-BOLDITALIC.OTF / ADHOC.TTF

Video
ID                                       : 1
Format                                   : HEVC
Format/Info                              : High Efficiency Video Coding
Format profile                           : Main 10@L5@Main
Codec ID                                 : V_MPEGH/ISO/HEVC
Duration                                 : 24 min 9 s
Bit rate                                 : 4 115 kb/s
Width                                    : 1 920 pixels
Height                                   : 1 080 pixels
Display aspect ratio                     : 16:9
Frame rate mode                          : Constant
Frame rate                               : 23.976 (24000/1001) FPS
Color space                              : YUV
Chroma subsampling                       : 4:2:0
Bit depth                                : 10 bits
Bits/(Pixel*Frame)                       : 0.083
Stream size                              : 711 MiB
Writing library                          : Lavc58.98.100 libx265
Language                                 : Japanese
Default                                  : Yes
Forced                                   : No
Color range                              : Limited
Matrix coefficients                      : BT.709

Audio
ID                                       : 2
Format                                   : AAC LC
Format/Info                              : Advanced Audio Codec Low Complexity
Codec ID                                 : A_AAC-2
Duration                                 : 24 min 9 s
Bit rate                                 : 221 kb/s
Channel(s)                               : 2 channels
Channel layout                           : L R
Sampling rate                            : 48.0 kHz
Frame rate                               : 46.875 FPS (1024 SPF)
Compression mode                         : Lossy
Stream size                              : 38.2 MiB (12%)
Language                                 : Japanese
Default                                  : Yes
Forced                                   : No

Text
ID                                       : 3
Format                                   : ASS
Codec ID                                 : S_TEXT/ASS
Codec ID/Info                            : Advanced Sub Station Alpha
Duration                                 : 24 min 9 s
Bit rate                                 : 215 b/s
Count of elements                        : 398
Compression mode                         : Lossless
Stream size                              : 35.7 KiB (0%)
Language                                 : English
Default                                  : Yes
Forced                                   : No

Menu
00:00:00.000                             : :Prologue
00:05:14.981                             : :Opening
00:06:44.987                             : :Part A
00:12:48.976                             : :Part B
00:22:09.995                             : :Ending
00:23:41.002                             : :Preview
beta
Anime DDL+NZB mirror
Current Time: 24/09/2021 09:52



About/FAQs