File Size167.7 MB (175,876,515 bytes)
DownloadClickNUpload | Jheberg
  • 1Fichier
  • 2Giga
  • BDupload
  • ClicknUpload
  • Filerio
  • FilesCDN
  • FilesUpload
  • Free
  • MegaUp
  • Nitroflare
  • Openload
  • ShareOnline
  • Turbobit
  • Tusfiles
  • Uppit
  • Uptobox
  • ddlTo
| MultiUp
  • BdUpload
  • DownAce
  • Fichier
  • FileCloud
  • Filerio
  • FilesCdn
  • IndiShare
  • Kbagi
  • Turbobit
  • UpToBox
  • Uppit
| Sendspace | SolidFiles | ZippyShare
HashesCRC32: 066FFC7C, MD5: 72E28C9A87D383873C646F4D7AA7D4C6, SHA1: F7E106375488B28CD446EBE9B823FAAAA2F8B5DB, SHA256: E31B3B4D894F235AA710A44B3EBB5349006BE09A775593453334A5F9F7B3A730, ED2K: D3D42448340DDBF16DEBF5D55DE63646
Screenshots
screenshotscreenshotscreenshotscreenshotscreenshot
SubtitlesAll Attachments | Signs [CTR] [eng, ASS], Subtitles [CTR] [eng, ASS], Signs [Funimation] [eng, PGS], Subtitles [Funimation] [eng, PGS]
Additional Info
General
Unique ID                                : 222028036561389014448514455445347923278 (0xA7090B5E800BCA1353BCB62EA17A754E)
Complete name                            : [CosmicDuck] Spice and Wolf S02e05.mkv
Format                                   : Matroska
Format version                           : Version 4
File size                                : 168 MiB
Duration                                 : 23 min 51 s
Overall bit rate                         : 983 kb/s
Encoded date                             : UTC 2020-02-06 02:32:47
Writing application                      : mkvmerge v43.0.0 ('The Quartermaster') 64-bit
Writing library                          : libebml v1.3.10 + libmatroska v1.5.2
Attachments                              : Perrywood MT Std Extra Bold Cn.otf / nyala.ttf / simkai.ttf / amerigo-bt.ttf / ANCISE_.TTF / cambria.ttc / Gabriola.ttf / GARABD.TTF / LCALLIG.TTF / MinionPro-Bold.otf

Video
ID                                       : 1
Format                                   : HEVC
Format/Info                              : High Efficiency Video Coding
Format profile                           : Main 10@L4@Main
Codec ID                                 : V_MPEGH/ISO/HEVC
Duration                                 : 23 min 45 s
Bit rate                                 : 552 kb/s
Width                                    : 1 912 pixels
Height                                   : 1 076 pixels
Display aspect ratio                     : 16:9
Frame rate mode                          : Constant
Frame rate                               : 23.976 (24000/1001) FPS
Color space                              : YUV
Chroma subsampling                       : 4:2:0
Bit depth                                : 10 bits
Bits/(Pixel*Frame)                       : 0.011
Stream size                              : 93.7 MiB (56%)
Title                                    : [CosmicDuck] Hevc x265
Writing library                          : x265 3.2.1+1-b5c86a64bbbe:[Windows][GCC 9.2.0][64 bit] 10bit
Encoding settings                        : cpuid=1111039 / frame-threads=6 / numa-pools=12 / wpp / no-pmode / no-pme / no-psnr / no-ssim / log-level=2 / input-csp=1 / input-res=1912x1076 / interlace=0 / total-frames=0 / level-idc=0 / high-tier=1 / uhd-bd=0 / ref=4 / no-allow-non-conformance / no-repeat-headers / annexb / no-aud / no-hrd / info / hash=0 / no-temporal-layers / open-gop / min-keyint=24 / keyint=240 / gop-lookahead=0 / bframes=8 / b-adapt=2 / b-pyramid / bframe-bias=0 / rc-lookahead=25 / lookahead-slices=4 / scenecut=40 / radl=0 / no-splice / no-intra-refresh / ctu=64 / min-cu-size=8 / rect / no-amp / max-tu-size=32 / tu-inter-depth=2 / tu-intra-depth=2 / limit-tu=0 / rdoq-level=2 / dynamic-rd=0.00 / no-ssim-rd / signhide / no-tskip / nr-intra=0 / nr-inter=0 / no-constrained-intra / strong-intra-smoothing / max-merge=3 / limit-refs=3 / limit-modes / me=3 / subme=3 / merange=57 / temporal-mvp / no-hme / weightp / no-weightb / no-analyze-src-pics / deblock=1:1 / sao / no-sao-non-deblock / rd=4 / selective-sao=4 / no-early-skip / rskip / no-fast-intra / no-tskip-fast / no-cu-lossless / no-b-intra / no-splitrd-skip / rdpenalty=0 / psy-rd=0.40 / psy-rdoq=1.20 / no-rd-refine / no-lossless / cbqpoffs=0 / crqpoffs=0 / rc=crf / crf=20.0 / qcomp=0.60 / qpstep=4 / stats-write=0 / stats-read=0 / ipratio=1.40 / pbratio=1.30 / aq-mode=3 / aq-strength=0.40 / cutree / zone-count=0 / no-strict-cbr / qg-size=32 / no-rc-grain / qpmax=69 / qpmin=0 / no-const-vbv / sar=1 / overscan=0 / videoformat=5 / range=0 / colorprim=1 / transfer=1 / colormatrix=1 / chromaloc=0 / display-window=0 / cll=0,0 / min-luma=0 / max-luma=1023 / log2-max-poc-lsb=8 / vui-timing-info / vui-hrd-info / slices=1 / no-opt-qp-pps / no-opt-ref-list-length-pps / no-multi-pass-opt-rps / scenecut-bias=0.05 / no-opt-cu-delta-qp / no-aq-motion / no-hdr / no-hdr-opt / no-dhdr10-opt / no-idr-recovery-sei / analysis-reuse-level=5 / scale-factor=0 / refine-intra=0 / refine-inter=0 / refine-mv=1 / refine-ctu-distortion=0 / no-limit-sao / ctu-info=0 / no-lowpass-dct / refine-analysis-type=0 / copy-pic=1 / max-ausize-factor=1.0 / no-dynamic-refine / no-single-sei / no-hevc-aq / no-svt / no-field / qp-adaptation-range=1.00
Default                                  : Yes
Forced                                   : No
Color range                              : Limited
Color primaries                          : BT.709
Transfer characteristics                 : BT.709
Matrix coefficients                      : BT.709

Audio #1
ID                                       : 6
Format                                   : Opus
Codec ID                                 : A_OPUS
Duration                                 : 23 min 50 s
Bit rate                                 : 195 kb/s
Channel(s)                               : 6 channels
Channel layout                           : L R C Ls Rs Cb LFE
Sampling rate                            : 48.0 kHz
Frame rate                               : 50.000 FPS (960 SPF)
Compression mode                         : Lossy
Stream size                              : 33.2 MiB (20%)
Title                                    : [CosmicDuck] Eng 5.1 Opus 196k
Writing library                          : Lavc58.67.101 libopus
Language                                 : English
Default                                  : Yes
Forced                                   : No

Audio #2
ID                                       : 7
Format                                   : Opus
Codec ID                                 : A_OPUS
Duration                                 : 23 min 51 s
Bit rate                                 : 131 kb/s
Channel(s)                               : 2 channels
Channel layout                           : L R
Sampling rate                            : 48.0 kHz
Frame rate                               : 50.001 FPS (960 SPF)
Compression mode                         : Lossy
Stream size                              : 22.3 MiB (13%)
Title                                    : [CosmicDuck] Jap 2.0 Opus 128k
Writing library                          : Lavc58.67.101 libopus
Language                                 : Japanese
Default                                  : No
Forced                                   : No

Text #1
ID                                       : 2
Format                                   : ASS
Codec ID                                 : S_TEXT/ASS
Codec ID/Info                            : Advanced Sub Station Alpha
Duration                                 : 23 min 43 s
Bit rate                                 : 45 b/s
Count of elements                        : 78
Compression mode                         : Lossless
Stream size                              : 7.85 KiB (0%)
Title                                    : Signs [CTR]
Language                                 : English
Default                                  : No
Forced                                   : No

Text #2
ID                                       : 3
Format                                   : ASS
Codec ID                                 : S_TEXT/ASS
Codec ID/Info                            : Advanced Sub Station Alpha
Duration                                 : 23 min 43 s
Bit rate                                 : 149 b/s
Count of elements                        : 393
Compression mode                         : Lossless
Stream size                              : 26.0 KiB (0%)
Title                                    : Subtitles [CTR]
Language                                 : English
Default                                  : Yes
Forced                                   : No

Text #3
ID                                       : 4
Format                                   : PGS
Muxing mode                              : zlib
Codec ID                                 : S_HDMV/PGS
Codec ID/Info                            : Picture based subtitle format used on BDs/HD-DVDs
Duration                                 : 23 min 35 s
Bit rate                                 : 3 103 b/s
Count of elements                        : 50
Stream size                              : 536 KiB (0%)
Title                                    : Signs [Funimation]
Language                                 : English
Default                                  : No
Forced                                   : No

Text #4
ID                                       : 5
Format                                   : PGS
Muxing mode                              : zlib
Codec ID                                 : S_HDMV/PGS
Codec ID/Info                            : Picture based subtitle format used on BDs/HD-DVDs
Duration                                 : 23 min 48 s
Bit rate                                 : 40.4 kb/s
Count of elements                        : 648
Stream size                              : 6.88 MiB (4%)
Title                                    : Subtitles [Funimation]
Language                                 : English
Default                                  : No
Forced                                   : No

Menu
00:00:00.000                             : en:Opening
00:01:30.173                             : en:Part A
00:11:19.220                             : en:Part B
00:22:10.037                             : en:Ending
00:23:40.085                             : en:Preview

Other Files in this Torrent
[CosmicDuck] Spice and Wolf S02e05.mkv
beta
Anime DDL+NZB mirror
Current Time: 04/12/2021 06:53



About/FAQs

Discord