File Size86.51 MB (90,711,816 bytes)
DownloadClickNUpload | Jheberg | MultiUp
  • BdUpload
  • DownAce
  • Fichier
  • FileCloud
  • Filerio
  • FilesCdn
  • IndiShare
  • Kbagi
  • Turbobit
  • UpToBox
  • Uppit
| OpenLoad | Sendspace | SolidFiles | ZippyShare
HashesCRC32: A095FC71, MD5: DAA207EEAA918C1050CAD8331B5B2BEF, SHA1: B21AE187AE92688DCBFA5CA33CA08D6403DF571B, SHA256: FF340F19D72F7CDAEA18E65D04FB9449C937B0F10609DD0DFB4088148A640A62, ED2K: 3154F72B537B931B34ECC06CD6A01311
Screenshots
screenshotscreenshotscreenshotscreenshotscreenshot
SubtitlesAll Attachments | eng [ASS]
Additional Info
General
Unique ID                                : 114862592626576450917199497593057422091 (0x5669BB0CBA18637F8380E3727E2FAB0B)
Complete name                            : [Commie] Midara na Ao-chan wa Benkyou ga Dekinai - Ao's Too Horny to Study - 11 [A095FC71].mkv
Format                                   : Matroska
Format version                           : Version 4
File size                                : 86.5 MiB
Duration                                 : 12 min 6 s
Overall bit rate                         : 1 000 kb/s
Encoded date                             : UTC 2019-06-20 07:16:33
Writing application                      : mkvmerge v29.0.0 ('Like It Or Not') 64-bit
Writing library                          : libebml v1.3.6 + libmatroska v1.4.9
Attachments                              : Arethusa.ttf / FOT Manyo Sosho Std Stripped EB.otf / Franchise Bold.ttf / GrilledCheese BTN Cn Bold.ttf / HummingStd-Accel-B.ttf / KmETypeMercurius-Medium.ttf / KmETypeMercurius-Medium-Italics.ttf / Krabby Patty.ttf / Merienda Bold.ttf / Nymph's Handwriting.ttf / PaintyPaint 1.ttf / Roboto Regular.ttf

Video
ID                                       : 1
Format                                   : AVC
Format/Info                              : Advanced Video Codec
Format profile                           : High 10@L5
Format settings                          : CABAC / 16 Ref Frames
Format settings, CABAC                   : Yes
Format settings, ReFrames                : 16 frames
Codec ID                                 : V_MPEG4/ISO/AVC
Duration                                 : 12 min 5 s
Bit rate                                 : 789 kb/s
Width                                    : 1 280 pixels
Height                                   : 720 pixels
Display aspect ratio                     : 16:9
Frame rate mode                          : Constant
Frame rate                               : 23.976 (24000/1001) FPS
Color space                              : YUV
Chroma subsampling                       : 4:2:0
Bit depth                                : 10 bits
Scan type                                : Progressive
Bits/(Pixel*Frame)                       : 0.036
Stream size                              : 68.3 MiB (79%)
Writing library                          : x264 core 142 r2431+42 c69a006 tMod [10-bit@all X86_64]
Encoding settings                        : cabac=1 / ref=16 / deblock=1:0:0 / analyse=0x3:0x133 / me=umh / subme=10 / psy=1 / fade_compensate=0.00 / psy_rd=0.70:0.00 / mixed_ref=1 / me_range=24 / chroma_me=1 / trellis=2 / 8x8dct=1 / cqm=0 / deadzone=21,11 / fast_pskip=1 / chroma_qp_offset=-2 / threads=6 / lookahead_threads=1 / sliced_threads=0 / nr=0 / decimate=1 / interlaced=0 / bluray_compat=0 / stitchable=1 / constrained_intra=0 / fgo=0 / bframes=8 / b_pyramid=2 / b_adapt=2 / b_bias=0 / direct=3 / weightb=1 / open_gop=0 / weightp=2 / keyint=250 / keyint_min=23 / scenecut=40 / intra_refresh=0 / rc_lookahead=60 / rc=crf / mbtree=1 / crf=16.0000 / qcomp=0.60 / qpmin=0:0:0 / qpmax=81:81:81 / qpstep=4 / ip_ratio=1.40 / aq=3:0.90 / aq-sensitivity=10.00 / aq-factor=1.00:1.00:1.00 / aq2=0 / aq3=0
Language                                 : Japanese
Default                                  : Yes
Forced                                   : No
Color range                              : Limited
Matrix coefficients                      : BT.709

Audio
ID                                       : 2
Format                                   : AAC LC
Format/Info                              : Advanced Audio Codec Low Complexity
Codec ID                                 : A_AAC-2
Duration                                 : 12 min 6 s
Bit rate                                 : 192 kb/s
Channel(s)                               : 2 channels
Channel layout                           : L R
Sampling rate                            : 44.1 kHz
Frame rate                               : 43.066 FPS (1024 SPF)
Compression mode                         : Lossy
Stream size                              : 16.9 MiB (20%)
Language                                 : Japanese
Default                                  : Yes
Forced                                   : Yes

Text
ID                                       : 3
Format                                   : ASS
Codec ID                                 : S_TEXT/ASS
Codec ID/Info                            : Advanced Sub Station Alpha
Duration                                 : 12 min 4 s
Bit rate                                 : 739 b/s
Count of elements                        : 651
Compression mode                         : Lossless
Stream size                              : 65.4 KiB (0%)
Language                                 : English
Default                                  : Yes
Forced                                   : No

Menu
00:00:00.000                             : en:Intro
00:01:45.021                             : en:OP
00:02:45.039                             : en:Main
00:10:55.988                             : en:ED
00:11:55.965                             : en:Preview
beta
Anime DDL+NZB mirror
Current Time: 07/08/2020 12:48



About/FAQs