File Size98.10 MB (102,866,412 bytes)
DownloadClickNUpload | Jheberg | MultiUp
  • BdUpload
  • DownAce
  • Fichier
  • FileCloud
  • Filerio
  • FilesCdn
  • IndiShare
  • Kbagi
  • Turbobit
  • UpToBox
  • Uppit
| OpenLoad | Sendspace | SolidFiles | ZippyShare
HashesCRC32: 5DE67E81, MD5: C5F3F35DBDE8BDF0F5D911F004239698, SHA1: 9A0610881BAB5D24113693215D53DA305EAB5FFD, SHA256: 0A814E3B83A91202D809C4157F02D9ED20F6E17BECD969D9810385C4A0DE2EA3, ED2K: A9DEB4C8E1BE69B39C20901E945D04C8
Screenshots
screenshotscreenshotscreenshotscreenshotscreenshot
SubtitlesAll Attachments | eng [ASS]
Additional Info
General
Unique ID                                : 279104540753571385988564805725447578897 (0xD1F9944AB8F6A7CCAA8F8589EFF8E511)
Complete name                            : [Commie] Midara na Ao-chan wa Benkyou ga Dekinai - Ao's Too Horny to Study - 10 [5DE67E81].mkv
Format                                   : Matroska
Format version                           : Version 4
File size                                : 98.1 MiB
Duration                                 : 12 min 6 s
Overall bit rate                         : 1 133 kb/s
Encoded date                             : UTC 2019-06-11 03:28:24
Writing application                      : mkvmerge v29.0.0 ('Like It Or Not') 64-bit
Writing library                          : libebml v1.3.6 + libmatroska v1.4.9
Attachments                              : AR CENA.ttf / AR CHRISTY.ttf / augie.ttf / DK Crayon Crumble.ttf / FOT Manyo Sosho Std Stripped EB.otf / Franchise Bold.ttf / GrilledCheese BTN Cn Bold.ttf / HummingStd-Accel-B.ttf / KmETypeMercurius-Medium.ttf / KmETypeMercurius-Medium-Italics.ttf / Merienda Bold.ttf / Nymph's Handwriting.ttf / VAG Rounded Black.ttf

Video
ID                                       : 1
Format                                   : AVC
Format/Info                              : Advanced Video Codec
Format profile                           : High 10@L5
Format settings                          : CABAC / 16 Ref Frames
Format settings, CABAC                   : Yes
Format settings, ReFrames                : 16 frames
Codec ID                                 : V_MPEG4/ISO/AVC
Duration                                 : 12 min 5 s
Bit rate                                 : 915 kb/s
Width                                    : 1 280 pixels
Height                                   : 720 pixels
Display aspect ratio                     : 16:9
Frame rate mode                          : Constant
Frame rate                               : 23.976 (24000/1001) FPS
Color space                              : YUV
Chroma subsampling                       : 4:2:0
Bit depth                                : 10 bits
Scan type                                : Progressive
Bits/(Pixel*Frame)                       : 0.041
Stream size                              : 79.2 MiB (81%)
Writing library                          : x264 core 142 r2431+42 c69a006 tMod [10-bit@all X86_64]
Encoding settings                        : cabac=1 / ref=16 / deblock=1:0:0 / analyse=0x3:0x133 / me=umh / subme=10 / psy=1 / fade_compensate=0.00 / psy_rd=0.70:0.00 / mixed_ref=1 / me_range=24 / chroma_me=1 / trellis=2 / 8x8dct=1 / cqm=0 / deadzone=21,11 / fast_pskip=1 / chroma_qp_offset=-2 / threads=6 / lookahead_threads=1 / sliced_threads=0 / nr=0 / decimate=1 / interlaced=0 / bluray_compat=0 / stitchable=1 / constrained_intra=0 / fgo=0 / bframes=8 / b_pyramid=2 / b_adapt=2 / b_bias=0 / direct=3 / weightb=1 / open_gop=0 / weightp=2 / keyint=250 / keyint_min=23 / scenecut=40 / intra_refresh=0 / rc_lookahead=60 / rc=crf / mbtree=1 / crf=16.0000 / qcomp=0.60 / qpmin=0:0:0 / qpmax=81:81:81 / qpstep=4 / ip_ratio=1.40 / aq=3:0.90 / aq-sensitivity=10.00 / aq-factor=1.00:1.00:1.00 / aq2=0 / aq3=0
Language                                 : Japanese
Default                                  : Yes
Forced                                   : No
Color range                              : Limited
Matrix coefficients                      : BT.709

Audio
ID                                       : 2
Format                                   : AAC LC
Format/Info                              : Advanced Audio Codec Low Complexity
Codec ID                                 : A_AAC-2
Duration                                 : 12 min 6 s
Bit rate                                 : 196 kb/s
Channel(s)                               : 2 channels
Channel layout                           : L R
Sampling rate                            : 44.1 kHz
Frame rate                               : 43.066 FPS (1024 SPF)
Compression mode                         : Lossy
Stream size                              : 17.0 MiB (17%)
Language                                 : Japanese
Default                                  : Yes
Forced                                   : Yes

Text
ID                                       : 3
Format                                   : ASS
Codec ID                                 : S_TEXT/ASS
Codec ID/Info                            : Advanced Sub Station Alpha
Duration                                 : 12 min 4 s
Bit rate                                 : 786 b/s
Count of elements                        : 671
Compression mode                         : Lossless
Stream size                              : 69.5 KiB (0%)
Language                                 : English
Default                                  : Yes
Forced                                   : No

Menu
00:00:00.000                             : en:Intro
00:01:06.483                             : en:OP
00:02:06.501                             : en:Main
00:10:55.988                             : en:ED
00:11:55.965                             : en:Preview
beta
Anime DDL+NZB mirror
Current Time: 14/08/2020 16:43



About/FAQs