File Size187.0 MB (196,080,419 bytes)
DownloadAnonFiles | ClickNUpload | DropAPK | Free | MultiUp
  • BdUpload
  • DownAce
  • Fichier
  • FileCloud
  • Filerio
  • FilesCdn
  • IndiShare
  • Kbagi
  • Turbobit
  • UpToBox
  • Uppit
| Sendspace | SolidFiles | ZippyShare
HashesCRC32: 8A1D1620, MD5: 2C884A99B25939FEEB7BB9598433840D, SHA1: EC93CF49B3CE346A8E8B7529741F8A74DC2B13C4, SHA256: ADA2EF304593422FC9922C08CBBDF6308AAEA5870EFCDB8976D68BDDA2F8FF77, ED2K: 0DEE2C6ECE5FB2D11DA87B4D0280ED28
Screenshots
screenshotscreenshotscreenshotscreenshotscreenshot
SubtitlesAll Attachments | eng [ASS]
Additional Info
General
Unique ID                                : 44296971629299566965668416246457669699 (0x2153495235681AAA192508BAE8E99843)
Complete name                            : [Commie] Haikyuu!! To The Top - 13 [8A1D1620].mkv
Format                                   : Matroska
Format version                           : Version 4
File size                                : 187 MiB
Duration                                 : 23 min 57 s
Overall bit rate                         : 1 092 kb/s
Encoded date                             : UTC 2020-04-04 01:37:11
Writing application                      : mkvmerge v44.0.0 ('Domino') 64-bit
Writing library                          : libebml v1.3.10 + libmatroska v1.5.2
Attachments                              : BTTTRIAL.ttf / FeatherScript.otf / FOTCometStdStripped-Bold.otf / FRADM.TTF / framd_0.ttf / FromWhereYouAre.ttf / Go Boom!.ttf / GOTH720K.TTF / KGHAPPY.ttf / LTFinnegan_Medium.ttf / LTFinnegan_MediumItalic.ttf / MercuryTextG1-Semibold.otf / SetFireToTheRain.ttf / brook23.ttf / Brush Strokes.ttf

Video
ID                                       : 1
Format                                   : AVC
Format/Info                              : Advanced Video Codec
Format profile                           : High 10@L5
Format settings                          : CABAC / 16 Ref Frames
Format settings, CABAC                   : Yes
Format settings, ReFrames                : 16 frames
Codec ID                                 : V_MPEG4/ISO/AVC
Duration                                 : 23 min 57 s
Bit rate                                 : 951 kb/s
Width                                    : 1 280 pixels
Height                                   : 720 pixels
Display aspect ratio                     : 16:9
Frame rate mode                          : Constant
Frame rate                               : 23.976 (24000/1001) FPS
Color space                              : YUV
Chroma subsampling                       : 4:2:0
Bit depth                                : 10 bits
Scan type                                : Progressive
Bits/(Pixel*Frame)                       : 0.043
Stream size                              : 163 MiB (87%)
Writing library                          : x264 core 159 r2991+49 524a90c t_mod_New [0-bit@all X86_64]
Encoding settings                        : cabac=1 / ref=16 / deblock=1:0:0 / analyse=0x3:0x133 / me=umh / subme=10 / psy=1 / fade_compensate=0.70 / psy_rd=0.60:0.15 / mixed_ref=1 / me_range=24 / chroma_me=1 / trellis=2 / 8x8dct=1 / cqm=0 / deadzone=21,11 / fast_pskip=1 / chroma_qp_offset=-3 / threads=18 / lookahead_threads=4 / sliced_threads=0 / nr=0 / decimate=1 / interlaced=0 / bluray_compat=0 / constrained_intra=0 / fgo=0 / bframes=10 / b_pyramid=2 / b_adapt=2 / b_bias=0 / direct=3 / weightb=1 / open_gop=0 / weightp=2 / keyint=250 / keyint_min=23 / scenecut=40 / intra_refresh=0 / rc_lookahead=60 / rc=crf / mbtree=1 / crf=18.0000 / qcomp=0.70 / qpmin=0:0:0 / qpmax=81:81:81 / qpstep=4 / ip_ratio=1.40 / aq=3:0.80 / aq-sensitivity=10.00 / aq-factor=1.00:1.00:1.00 / aq2=0 / aq3=0
Language                                 : English
Default                                  : Yes
Forced                                   : No

Audio
ID                                       : 2
Format                                   : AAC LC
Format/Info                              : Advanced Audio Codec Low Complexity
Codec ID                                 : A_AAC-2
Duration                                 : 23 min 57 s
Bit rate                                 : 128 kb/s
Channel(s)                               : 2 channels
Channel layout                           : L R
Sampling rate                            : 44.1 kHz
Frame rate                               : 43.066 FPS (1024 SPF)
Compression mode                         : Lossy
Stream size                              : 21.9 MiB (12%)
Language                                 : Japanese
Default                                  : Yes
Forced                                   : No

Text
ID                                       : 3
Format                                   : ASS
Codec ID                                 : S_TEXT/ASS
Codec ID/Info                            : Advanced Sub Station Alpha
Duration                                 : 23 min 47 s
Bit rate                                 : 836 b/s
Count of elements                        : 1198
Compression mode                         : Lossless
Stream size                              : 146 KiB (0%)
Language                                 : English
Default                                  : Yes
Forced                                   : No

Menu
00:00:00.033                             : en:Intro
00:01:52.000                             : en:OP
00:03:21.970                             : en:Part A
00:11:42.010                             : en:Part B
00:22:22.020                             : en:ED
00:23:51.990                             : en:Preview
beta
Anime DDL+NZB mirror
Current Time: 30/09/2020 00:31



About/FAQs