File Size18.67 MB (19,572,689 bytes)
DownloadClickNUpload | Jheberg | MultiUp
  • BdUpload
  • DownAce
  • Fichier
  • FileCloud
  • Filerio
  • FilesCdn
  • IndiShare
  • Kbagi
  • Turbobit
  • UpToBox
  • Uppit
| OpenLoad | Sendspace | SolidFiles | ZippyShare
HashesCRC32: BF34EE31, MD5: FC12D9A6AF60AEF54D38BC68F1476E15, SHA1: F34AAB9BE8762760834B15D3B508AC065CC4DE2F, SHA256: 4B98F961F3424AF143C7C51EC21AA83A2C259F38B9E51675503F7E300EC07922, ED2K: AD6710FE044A2CDDB3D9B52C618D27D2
Screenshots
screenshot
Additional Info
General
Unique ID                                : 34934812559238027869414272290833716854 (0x1A48333DBF4FB75FFCBBC1B316C25676)
Complete name                            : [Deany] Miru Tights - PV 1 [BDRip 1080p HEVC FLAC].mkv
Format                                   : Matroska
Format version                           : Version 4
File size                                : 18.7 MiB
Duration                                 : 36 s 537 ms
Overall bit rate mode                    : Variable
Overall bit rate                         : 4 286 kb/s
Encoded date                             : UTC 2019-09-28 14:29:05
Writing application                      : mkvmerge v35.0.0 ('All The Love In The World') 64-bit
Writing library                          : libebml v1.3.9 + libmatroska v1.5.2

Video
ID                                       : 1
Format                                   : HEVC
Format/Info                              : High Efficiency Video Coding
Format profile                           : Main 10@L4.1@High
Codec ID                                 : V_MPEGH/ISO/HEVC
Duration                                 : 36 s 537 ms
Bit rate                                 : 3 053 kb/s
Width                                    : 1 920 pixels
Height                                   : 1 080 pixels
Display aspect ratio                     : 16:9
Frame rate mode                          : Constant
Frame rate                               : 23.976 (24000/1001) FPS
Color space                              : YUV
Chroma subsampling                       : 4:2:0
Bit depth                                : 10 bits
Bits/(Pixel*Frame)                       : 0.061
Stream size                              : 13.3 MiB (71%)
Writing library                          : x265 3.1+2-g764455672+26:[Windows][GCC 8.3.0][64 bit] Yuuki 10bit
Encoding settings                        : rc=crf / crf=15.0000 / qcomp=0.65 / qpstep=4 / stats-write=0 / stats-read=0 / vbv-maxrate=38000 / vbv-bufsize=40000 / vbv-init=0.9 / crf-max=0.0 / crf-min=0.0 / no-lossless / no-cu-lossless / aq-mode=1 / aq-strength=0.80 / cbqpoffs=-2 / crqpoffs=-2 / ipratio=1.40 / pbratio=1.20 / psy-rd=2.00 / psy-rdoq=3.00 / deblock=-1:-1 / ref=5 / limit-refs=1 / limit-modes / bframes=6 / b-adapt=2 / bframe-bias=0 / b-pyramid / b-intra / weightp / weightb / min-keyint=1 / max-keyint=240 / rc-lookahead=80 / gop-lookahead=0 / scenecut=40 / radl=0 / max-cu-size=32 / min-cu-size=8 / me=3 / subme=3 / merange=42 / rdoq-level=2 / rd=6 / rdpenalty=0 / dynamic-rd=0.00 / no-rd-refine / ----- / cutree / no-sao / no-rect / no-amp / no-open-gop / wpp / no-pmode / no-pme / no-psnr / no-ssim / nr-intra=0 / nr-inter=0 / no-constrained-intra / no-strong-intra-smoothing / max-tu-size=32 / tu-inter-depth=2 / tu-intra-depth=3 / limit-tu=4 / qg-size=16 / qpmax=69 / qpmin=0 / ----- / cpuid=1111039 / frame-threads=4 / numa-pools=16 / log-level=2 / input-csp=1 / input-res=1920x1080 / interlace=0 / level-idc=41 / high-tier=1 / uhd-bd=0 / no-allow-non-conformance / no-repeat-headers / no-aud / no-hrd / info / hash=0 / no-temporal-layers / lookahead-slices=4 / no-splice / no-intra-refresh / no-ssim-rd / signhide / no-tskip / max-merge=4 / temporal-mvp / no-analyze-src-pics / no-sao-non-deblock / no-early-skip / rskip / no-fast-intra / no-tskip-fast / no-splitrd-skip / zone-count=0 / no-strict-cbr / no-rc-grain / no-const-vbv / sar=0 / overscan=0 / videoformat=5 / range=0 / colorprim=2 / transfer=2 / colormatrix=1 / chromaloc=0 / display-window=0cll=0,0 / min-luma=0 / max-luma=1023 / log2-max-poc-lsb=8 / vui-timing-info / vui-hrd-info / slices=1 / no-opt-qp-pps / no-opt-ref-list-length-pps / no-multi-pass-opt-rps / scenecut-bias=0.05 / no-opt-cu-delta-qp / no-aq-motion / no-hdr / no-hdr-opt / no-dhdr10-opt / no-idr-recovery-sei / analysis-reuse-level=5 / scale-factor=0 / refine-intra=0 / refine-inter=0 / refine-mv=0 / refine-ctu-distortion=0 / no-limit-sao / ctu-info=0 / no-lowpass-dct / refine-analysis-type=0 / copy-pic=1 / max-ausize-factor=1.0 / no-dynamic-refine / no-single-sei / no-hevc-aq / no-svt / no-field / qp-adaptation-range=1.00
Default                                  : Yes
Forced                                   : No
Color range                              : Limited
Matrix coefficients                      : BT.709

Audio
ID                                       : 2
Format                                   : FLAC
Format/Info                              : Free Lossless Audio Codec
Codec ID                                 : A_FLAC
Duration                                 : 36 s 535 ms
Bit rate mode                            : Variable
Bit rate                                 : 1 227 kb/s
Channel(s)                               : 2 channels
Channel layout                           : L R
Sampling rate                            : 48.0 kHz
Frame rate                               : 11.742 FPS (4088 SPF)
Bit depth                                : 24 bits
Compression mode                         : Lossless
Stream size                              : 5.35 MiB (29%)
Writing library                          : libFLAC 1.3.3 (UTC 2019-08-04)
Language                                 : Japanese
Default                                  : Yes
Forced                                   : No

Other Files in this Torrent
CM&PV/[Deany] Miru Tights - PV 1 [BDRip 1080p HEVC FLAC].mkv
beta
Anime DDL+NZB mirror
Current Time: 12/12/2019 18:58



About/FAQs