File Size185.5 MB (194,516,625 bytes)
DownloadClickNUpload | Go4Up
  • DownAce
  • FileFactory
  • KatFile
  • Oboom
  • OwnDrives
  • Share-Online
  • SolidFiles
  • TusFiles
  • Uppit
  • UsersCloud
| Jheberg | MultiUp
  • BdUpload
  • DownAce
  • Fichier
  • FileCloud
  • Filerio
  • FilesCdn
  • IndiShare
  • Kbagi
  • Solidfiles
  • Turbobit
  • UpToBox
  • Uppit
| OpenLoad | Sendspace | ZippyShare
HashesCRC32: 967C1A35, MD5: 5B841B4209936AF63682C1501E69E504, SHA1: 5B36B9A7804E974435D2BB02082D9FA0CCC75EF1, SHA256: 84644DD1EE71F03EC3EC779DB02E749E85132882612E6E4365D5FEF66F84D464, ED2K: 3886B553740C9B011721BF51A30E54BB
Screenshots
screenshotscreenshotscreenshotscreenshotscreenshot
SubtitlesAll Attachments | und [ASS], eng [ASS]
Additional Info
General
Unique ID                                : 194652817597350432495072197407245233103 (0x9270C4DE4C75186F97BBED8A8AEA6BCF)
Complete name                            : [Cleo]Tensei_shitara_Slime_Datta_Ken_-_20_(Dual Audio_10bit_720p_x265).mkv
Format                                   : Matroska
Format version                           : Version 4
File size                                : 186 MiB
Duration                                 : 23 min 40 s
Overall bit rate                         : 1 096 kb/s
Movie name                               : That Time I Got Reincarnated as a Slime - 20 - 'Yuuki Kagurazaka'
Encoded date                             : UTC 2019-03-20 07:55:00
Writing application                      : mkvmerge v15.0.0 ('Duel with the Devil') 64-bit
Writing library                          : libebml v1.3.5 + libmatroska v1.4.5
Attachments                              : Abbey Md_PFLNormal.ttf / arial_3.ttf / ashcanbb_bold.ttf / CALISTB_1.ttf / FTLTLT.ttf / GARA_0.ttf / GenBkBasB.ttf / Iwata Mincho Old ProEn HRegular_0.ttf / LT_3italic_2.ttf / LT_italic_3.ttf

Video
ID                                       : 1
Format                                   : HEVC
Format/Info                              : High Efficiency Video Coding
Format profile                           : Main 10@L6.2@High
Codec ID                                 : V_MPEGH/ISO/HEVC
Duration                                 : 23 min 40 s
Bit rate                                 : 791 kb/s
Width                                    : 1 280 pixels
Height                                   : 720 pixels
Display aspect ratio                     : 16:9
Frame rate mode                          : Constant
Frame rate                               : 23.976 (24000/1001) FPS
Color space                              : YUV
Chroma subsampling                       : 4:2:0
Bit depth                                : 10 bits
Bits/(Pixel*Frame)                       : 0.036
Stream size                              : 134 MiB (72%)
Writing library                          : x265 2.5+14-2718cb5dd67f:[Windows][GCC 7.1.0][64 bit] 10bit
Encoding settings                        : cpuid=1050111 / frame-threads=3 / numa-pools=8 / wpp / pmode / no-pme / no-psnr / no-ssim / log-level=2 / input-csp=1 / input-res=1280x720 / interlace=0 / total-frames=34046 / level-idc=62 / high-tier=1 / uhd-bd=0 / ref=3 / no-allow-non-conformance / no-repeat-headers / annexb / no-aud / no-hrd / info / hash=0 / no-temporal-layers / open-gop / min-keyint=23 / keyint=250 / bframes=4 / b-adapt=2 / b-pyramid / bframe-bias=0 / rc-lookahead=20 / lookahead-slices=4 / scenecut=40 / no-intra-refresh / ctu=64 / min-cu-size=8 / no-rect / no-amp / max-tu-size=32 / tu-inter-depth=1 / tu-intra-depth=1 / limit-tu=0 / rdoq-level=0 / dynamic-rd=0.00 / no-ssim-rd / signhide / no-tskip / nr-intra=0 / nr-inter=0 / no-constrained-intra / strong-intra-smoothing / max-merge=2 / limit-refs=0 / no-limit-modes / me=1 / subme=2 / merange=57 / temporal-mvp / weightp / no-weightb / no-analyze-src-pics / deblock=0:0 / sao / no-sao-non-deblock / rd=3 / no-early-skip / rskip / no-fast-intra / no-tskip-fast / no-cu-lossless / no-b-intra / no-splitrd-skip / rdpenalty=0 / psy-rd=2.00 / psy-rdoq=0.00 / no-rd-refine / analysis-reuse-mode=0 / no-lossless / cbqpoffs=0 / crqpoffs=0 / rc=crf / crf=21.5 / qcomp=0.60 / qpstep=4 / stats-write=0 / stats-read=0 / vbv-maxrate=800000 / vbv-bufsize=800000 / vbv-init=0.9 / crf-max=0.0 / crf-min=0.0 / ipratio=1.40 / pbratio=1.30 / aq-mode=2 / aq-strength=1.00 / cutree / zone-count=0 / no-strict-cbr / qg-size=32 / no-rc-grain / qpmax=69 / qpmin=0 / no-const-vbv / sar=0 / overscan=0 / videoformat=5 / range=0 / colorprim=2 / transfer=2 / colormatrix=2 / chromaloc=0 / display-window=0 / max-cll=0,0 / min-luma=0 / max-luma=1023 / log2-max-poc-lsb=8 / vui-timing-info / vui-hrd-info / slices=1 / opt-qp-pps / opt-ref-list-length-pps / no-multi-pass-opt-rps / scenecut-bias=0.05 / no-opt-cu-delta-qp / no-aq-motion / no-hdr / no-hdr-opt / no-dhdr10-opt / analysis-reuse-level=5 / scale-factor=0 / refine-intra=0 / refine-inter=0 / refine-mv=0 / no-limit-sao / ctu-info=0
Default                                  : Yes
Forced                                   : No

Audio #1
ID                                       : 2
Format                                   : AAC LC
Format/Info                              : Advanced Audio Codec Low Complexity
Codec ID                                 : A_AAC-2
Duration                                 : 23 min 40 s
Bit rate                                 : 132 kb/s
Channel(s)                               : 2 channels
Channel layout                           : L R
Sampling rate                            : 48.0 kHz
Frame rate                               : 46.875 FPS (1024 SPF)
Compression mode                         : Lossy
Delay relative to video                  : 9 ms
Stream size                              : 22.4 MiB (12%)
Language                                 : English
Default                                  : Yes
Forced                                   : No

Audio #2
ID                                       : 3
Format                                   : AAC LC
Format/Info                              : Advanced Audio Codec Low Complexity
Codec ID                                 : A_AAC-2
Duration                                 : 23 min 40 s
Bit rate                                 : 93.8 kb/s
Channel(s)                               : 2 channels
Channel layout                           : L R
Sampling rate                            : 44.1 kHz
Frame rate                               : 43.066 FPS (1024 SPF)
Compression mode                         : Lossy
Delay relative to video                  : 10 ms
Stream size                              : 15.9 MiB (9%)
Language                                 : Japanese
Default                                  : No
Forced                                   : No

Text #1
ID                                       : 4
Format                                   : ASS
Codec ID                                 : S_TEXT/ASS
Codec ID/Info                            : Advanced Sub Station Alpha
Duration                                 : 23 min 29 s
Bit rate                                 : 13.5 kb/s
Count of elements                        : 18023
Compression mode                         : Lossless
Stream size                              : 2.27 MiB (1%)
Default                                  : No
Forced                                   : Yes

Text #2
ID                                       : 5
Format                                   : ASS
Codec ID                                 : S_TEXT/ASS
Codec ID/Info                            : Advanced Sub Station Alpha
Duration                                 : 23 min 29 s
Bit rate                                 : 13.6 kb/s
Count of elements                        : 18371
Compression mode                         : Lossless
Stream size                              : 2.29 MiB (1%)
Language                                 : English
Default                                  : Yes
Forced                                   : No

Menu
00:00:00.000                             : en:OP
00:01:30.080                             : en:Part A
00:08:53.074                             : en:Part B
00:22:05.075                             : en:ED
00:23:35.082                             : en:Next Episode

Other Files in this Torrent
[Cleo]Tensei_shitara_Slime_Datta_Ken_-_20_(Dual Audio_10bit_720p_x265).mkv
beta
Anime DDL+NZB mirror
Current Time: 04/04/2020 20:16



About/FAQs