[chintu99] Dumbbell Nan Kilo Moteru - ED [1080p] (with lyrics) [6503F5F1].mkv


File Size76.65 MB (80,377,724 bytes)
DownloadClickNUpload | Jheberg | MultiUp
  • BdUpload
  • DownAce
  • Fichier
  • FileCloud
  • Filerio
  • FilesCdn
  • IndiShare
  • Kbagi
  • Turbobit
  • UpToBox
  • Uppit
| OpenLoad | Sendspace | SolidFiles | ZippyShare
HashesCRC32: 6503F5F1, MD5: AD62E2521B7FA430BC5F14DDAC90374C, SHA1: 985B8FD6DD2E538809A0BE2B3EB35B41B82A6781, SHA256: E6F75184DD1F3B051A714A1E4A11885A042929E5B3DF37366D27C5C2508177CB, ED2K: 6B719F43727C481566F4478B131CAF9D
Screenshots
screenshot
SubtitlesAll Attachments | chintu99 [eng, ASS], eng [ASS]
Additional Info
General
Unique ID                                : 153403470120226797158122835928085185375 (0x73686F04D97147B158D55E3BFD04435F)
Complete name                            : [chintu99] Dumbbell Nan Kilo Moteru - ED [1080p] (with lyrics) [6503F5F1].mkv
Format                                   : Matroska
Format version                           : Version 4
File size                                : 76.7 MiB
Duration                                 : 1 min 29 s
Overall bit rate                         : 7 223 kb/s
Encoded date                             : UTC 2019-07-11 20:20:40
Writing application                      : mkvmerge v35.0.0 ('All The Love In The World') 64-bit
Writing library                          : libebml v1.3.9 + libmatroska v1.5.2 / Lavf58.12.100
Attachments                              : open-sans-semibold_[allfont.net].ttf

Video
ID                                       : 2
Format                                   : AVC
Format/Info                              : Advanced Video Codec
Format profile                           : High@L4
Format settings                          : CABAC / 4 Ref Frames
Format settings, CABAC                   : Yes
Format settings, ReFrames                : 4 frames
Codec ID                                 : V_MPEG4/ISO/AVC
Duration                                 : 1 min 28 s
Bit rate                                 : 7 083 kb/s
Width                                    : 1 920 pixels
Height                                   : 1 080 pixels
Display aspect ratio                     : 16:9
Frame rate mode                          : Constant
Frame rate                               : 23.976 (23976/1000) FPS
Color space                              : YUV
Chroma subsampling                       : 4:2:0
Bit depth                                : 8 bits
Scan type                                : Progressive
Bits/(Pixel*Frame)                       : 0.142
Stream size                              : 75.1 MiB (98%)
Writing library                          : x264 core 148
Encoding settings                        : cabac=1 / ref=3 / deblock=1:0:0 / analyse=0x3:0x113 / me=hex / subme=7 / psy=1 / psy_rd=1.00:0.00 / mixed_ref=1 / me_range=16 / chroma_me=1 / trellis=1 / 8x8dct=1 / cqm=0 / deadzone=21,11 / fast_pskip=1 / chroma_qp_offset=-2 / threads=6 / lookahead_threads=1 / sliced_threads=0 / nr=0 / decimate=1 / interlaced=0 / bluray_compat=0 / constrained_intra=0 / bframes=3 / b_pyramid=2 / b_adapt=1 / b_bias=0 / direct=1 / weightb=1 / open_gop=0 / weightp=2 / keyint=250 / keyint_min=23 / scenecut=40 / intra_refresh=0 / rc_lookahead=40 / rc=crf / mbtree=1 / crf=18.0 / qcomp=0.60 / qpmin=0 / qpmax=69 / qpstep=4 / ip_ratio=1.40 / aq=1:1.00
Default                                  : Yes
Forced                                   : No

Audio
ID                                       : 3
Format                                   : AAC LC
Format/Info                              : Advanced Audio Codec Low Complexity
Codec ID                                 : A_AAC-2
Duration                                 : 1 min 29 s
Bit rate                                 : 129 kb/s
Channel(s)                               : 2 channels
Channel layout                           : L R
Sampling rate                            : 48.0 kHz
Frame rate                               : 46.875 FPS (1024 SPF)
Compression mode                         : Lossy
Delay relative to video                  : -42 ms
Stream size                              : 1.37 MiB (2%)
Writing library                          : Lavc58.18.100 aac
Language                                 : Japanese
Default                                  : Yes
Forced                                   : No

Text #1
ID                                       : 1
Format                                   : ASS
Codec ID                                 : S_TEXT/ASS
Codec ID/Info                            : Advanced Sub Station Alpha
Duration                                 : 1 min 27 s
Bit rate                                 : 290 b/s
Count of elements                        : 62
Compression mode                         : Lossless
Stream size                              : 3.08 KiB (0%)
Title                                    : chintu99
Language                                 : English
Default                                  : Yes
Forced                                   : No

Text #2
ID                                       : 4
Format                                   : ASS
Codec ID                                 : S_TEXT/ASS
Codec ID/Info                            : Advanced Sub Station Alpha
Bit rate                                 : 0 b/s
Count of elements                        : 0
Compression mode                         : Lossless
Stream size                              : 0.00 Byte (0%)
Writing library                          : Lavc58.18.100 ssa
Language                                 : English
Default                                  : No
Forced                                   : No
beta
Anime DDL+NZB mirror
Current Time: 06/12/2019 18:14



About/FAQs