[chintu99] Carole & Tuesday ED2 (with lyrics) [1080p] [6B429486].mkv


File Size86.90 MB (91,121,906 bytes)
DownloadClickNUpload | Jheberg | MultiUp
  • BdUpload
  • DownAce
  • Fichier
  • FileCloud
  • Filerio
  • FilesCdn
  • IndiShare
  • Kbagi
  • Turbobit
  • UpToBox
  • Uppit
| OpenLoad | Sendspace | SolidFiles | ZippyShare
HashesCRC32: 6B429486, MD5: CDA5F82248E41A6E3BFB36F74C58CEFE, SHA1: BF5A6958B71E2CCA3F9A0EA5A2EC31628D25ABA5, SHA256: A300F019B87CE137229F8D8366B358057EFAC55246AF434BF95889D0036AFCAC, ED2K: E979FFA72CF2DC5577F91DA1C9D1011E
Screenshots
screenshotscreenshot
SubtitlesAll Attachments | chintu99 lyrics [eng, ASS]
Additional Info
General
Unique ID                                : 287672932910590721211553661056379348870 (0xD86BCAA43704779EA1B49A51D5816786)
Complete name                            : [chintu99] Carole & Tuesday ED2 (with lyrics) [1080p] [6B429486].mkv
Format                                   : Matroska
Format version                           : Version 4
File size                                : 86.9 MiB
Duration                                 : 1 min 32 s
Overall bit rate                         : 7 904 kb/s
Movie name                               : C & T ED2 music video(with lyrics)
Encoded date                             : UTC 2019-07-13 09:21:38
Writing application                      : mkvmerge v35.0.0 ('All The Love In The World') 64-bit
Writing library                          : libebml v1.3.9 + libmatroska v1.5.2
Attachments                              : times.ttf

Video
ID                                       : 2
Format                                   : AVC
Format/Info                              : Advanced Video Codec
Format profile                           : High@L4
Format settings                          : CABAC / 4 Ref Frames
Format settings, CABAC                   : Yes
Format settings, ReFrames                : 4 frames
Codec ID                                 : V_MPEG4/ISO/AVC
Duration                                 : 1 min 32 s
Bit rate                                 : 7 683 kb/s
Width                                    : 1 920 pixels
Height                                   : 1 080 pixels
Display aspect ratio                     : 16:9
Frame rate mode                          : Constant
Frame rate                               : 23.976 (23976/1000) FPS
Color space                              : YUV
Chroma subsampling                       : 4:2:0
Bit depth                                : 8 bits
Scan type                                : Progressive
Bits/(Pixel*Frame)                       : 0.155
Stream size                              : 84.3 MiB (97%)
Title                                    : C & T ED2
Writing library                          : x264 core 148
Encoding settings                        : cabac=1 / ref=3 / deblock=1:0:0 / analyse=0x3:0x113 / me=hex / subme=7 / psy=1 / psy_rd=1.00:0.00 / mixed_ref=1 / me_range=16 / chroma_me=1 / trellis=1 / 8x8dct=1 / cqm=0 / deadzone=21,11 / fast_pskip=1 / chroma_qp_offset=-2 / threads=6 / lookahead_threads=1 / sliced_threads=0 / nr=0 / decimate=1 / interlaced=0 / bluray_compat=0 / constrained_intra=0 / bframes=3 / b_pyramid=2 / b_adapt=1 / b_bias=0 / direct=1 / weightb=1 / open_gop=0 / weightp=2 / keyint=250 / keyint_min=23 / scenecut=40 / intra_refresh=0 / rc_lookahead=40 / rc=crf / mbtree=1 / crf=16.0 / qcomp=0.60 / qpmin=0 / qpmax=69 / qpstep=4 / ip_ratio=1.40 / aq=1:1.00
Language                                 : English
Default                                  : Yes
Forced                                   : No

Audio
ID                                       : 3
Format                                   : AAC LC
Format/Info                              : Advanced Audio Codec Low Complexity
Codec ID                                 : A_AAC-2
Duration                                 : 1 min 32 s
Bit rate                                 : 127 kb/s
Channel(s)                               : 2 channels
Channel layout                           : L R
Sampling rate                            : 48.0 kHz
Frame rate                               : 46.875 FPS (1024 SPF)
Compression mode                         : Lossy
Delay relative to video                  : -42 ms
Stream size                              : 1.39 MiB (2%)
Title                                    : Englisg [Original]
Language                                 : English
Default                                  : Yes
Forced                                   : No

Text
ID                                       : 1
Format                                   : ASS
Codec ID                                 : S_TEXT/ASS
Codec ID/Info                            : Advanced Sub Station Alpha
Duration                                 : 1 min 20 s
Bit rate                                 : 169 b/s
Count of elements                        : 17
Compression mode                         : Lossless
Stream size                              : 1.65 KiB (0%)
Title                                    : chintu99 lyrics
Language                                 : English
Default                                  : Yes
Forced                                   : No
beta
Anime DDL+NZB mirror
Current Time: 08/08/2020 00:20



About/FAQs