[Chintu] Carole & Tuesday Mini Series - 06 [1080p] [B09452CA].mkv


File Size9.507 MB (9,968,877 bytes)
DownloadClickNUpload | Jheberg | MultiUp
  • BdUpload
  • DownAce
  • Fichier
  • FileCloud
  • Filerio
  • FilesCdn
  • IndiShare
  • Kbagi
  • Turbobit
  • UpToBox
  • Uppit
| OpenLoad | Sendspace | SolidFiles | ZippyShare
HashesCRC32: B09452CA, MD5: 869AB239720662C6B4B191F5FC5E3DA8, SHA1: 0B19DE247C3D969E70AA5CA0D89F5D4A56016061, SHA256: 48C75CF56CC37632CFC45BE8F7616C6974BEEABEEA2AFD61DC4F994409792582, ED2K: E3D65C63B4578F44A78A7F3D3625997C
Screenshots
screenshot
SubtitlesAll Attachments | Chintu [eng, ASS]
Additional Info
General
Unique ID                                : 220636075744171415959543961771922809440 (0xA5FCF666F9AFEC59F8FDCF12FAD5E260)
Complete name                            : [Chintu] Carole & Tuesday Mini Series - 06 [1080p] [B09452CA].mkv
Format                                   : Matroska
Format version                           : Version 4
File size                                : 9.51 MiB
Duration                                 : 1 min 6 s
Overall bit rate                         : 1 207 kb/s
Movie name                               : [Chintu] Carole & Tuesday Mini Series - 06 [1080p]
Encoded date                             : UTC 2019-09-02 12:16:13
Writing application                      : mkvmerge v35.0.0 ('All The Love In The World') 64-bit
Writing library                          : libebml v1.3.9 + libmatroska v1.5.2
Attachments                              : BRLNSB.TTF / BRLNSDB.TTF / BRLNSR.TTF / Hand Boys.otf

Video
ID                                       : 2
Format                                   : AVC
Format/Info                              : Advanced Video Codec
Format profile                           : High@L4
Format settings                          : CABAC / 3 Ref Frames
Format settings, CABAC                   : Yes
Format settings, ReFrames                : 3 frames
Codec ID                                 : V_MPEG4/ISO/AVC
Duration                                 : 1 min 6 s
Bit rate                                 : 1 039 kb/s
Width                                    : 1 920 pixels
Height                                   : 1 080 pixels
Display aspect ratio                     : 16:9
Frame rate mode                          : Constant
Frame rate                               : 24.000 FPS
Color space                              : YUV
Chroma subsampling                       : 4:2:0
Bit depth                                : 8 bits
Scan type                                : Progressive
Bits/(Pixel*Frame)                       : 0.021
Stream size                              : 8.17 MiB (86%)
Default                                  : Yes
Forced                                   : No
Color range                              : Limited
Color primaries                          : BT.709
Transfer characteristics                 : BT.709
Matrix coefficients                      : BT.709

Audio
ID                                       : 3
Format                                   : AAC LC
Format/Info                              : Advanced Audio Codec Low Complexity
Codec ID                                 : A_AAC-2
Duration                                 : 1 min 6 s
Bit rate                                 : 128 kb/s
Channel(s)                               : 2 channels
Channel layout                           : L R
Sampling rate                            : 44.1 kHz
Frame rate                               : 43.066 FPS (1024 SPF)
Compression mode                         : Lossy
Stream size                              : 1.01 MiB (11%)
Language                                 : English
Default                                  : Yes
Forced                                   : No

Text
ID                                       : 1
Format                                   : ASS
Codec ID                                 : S_TEXT/ASS
Codec ID/Info                            : Advanced Sub Station Alpha
Duration                                 : 1 min 1 s
Bit rate                                 : 137 b/s
Count of elements                        : 26
Compression mode                         : Lossless
Stream size                              : 1.03 KiB (0%)
Title                                    : Chintu
Language                                 : English
Default                                  : Yes
Forced                                   : No
beta
Anime DDL+NZB mirror
Current Time: 02/03/2021 13:27



About/FAQs