[Chintu] Carole & Tuesday Mini Series - 04 [1080p] [58C24803].mkv


File Size18.38 MB (19,269,252 bytes)
DownloadClickNUpload | Jheberg | MultiUp
  • BdUpload
  • DownAce
  • Fichier
  • FileCloud
  • Filerio
  • FilesCdn
  • IndiShare
  • Kbagi
  • Turbobit
  • UpToBox
  • Uppit
| OpenLoad | Sendspace | SolidFiles | ZippyShare
HashesCRC32: 58C24803, MD5: 4E7703BECCCB1DF0004C77FEC0D2FD8F, SHA1: 5D4E474A398C6B251B247D60C8E826D5F69BC325, SHA256: 9C1E895D89B943EF1A19D919C8E1FD18C799064EA021774DAAAEC4331D27B524, ED2K: A1471A48CC75371A90051CCC5E7636A6
Screenshots
screenshot
SubtitlesAll Attachments | English [eng, ASS]
Additional Info
General
Unique ID                                : 72180790346713405311279080669479078411 (0x364D83B9CCB40FBB2CC2613DEE968A0B)
Complete name                            : [Chintu] Carole & Tuesday Mini Series - 04 [1080p] [58C24803].mkv
Format                                   : Matroska
Format version                           : Version 4
File size                                : 18.4 MiB
Duration                                 : 1 min 14 s
Overall bit rate                         : 2 075 kb/s
Encoded date                             : UTC 2019-08-09 11:03:33
Writing application                      : mkvmerge v35.0.0 ('All The Love In The World') 64-bit
Writing library                          : libebml v1.3.9 + libmatroska v1.5.2
Attachments                              : calibri.ttf / calibrib.ttf / calibrii.ttf / calibril.ttf / calibrili.ttf / calibriz.ttf / Hand Boys.otf

Video
ID                                       : 2
Format                                   : AVC
Format/Info                              : Advanced Video Codec
Format profile                           : High@L4
Format settings                          : CABAC / 3 Ref Frames
Format settings, CABAC                   : Yes
Format settings, ReFrames                : 3 frames
Codec ID                                 : V_MPEG4/ISO/AVC
Duration                                 : 1 min 14 s
Bit rate                                 : 1 101 kb/s
Width                                    : 1 920 pixels
Height                                   : 1 080 pixels
Display aspect ratio                     : 16:9
Frame rate mode                          : Constant
Frame rate                               : 24.000 FPS
Color space                              : YUV
Chroma subsampling                       : 4:2:0
Bit depth                                : 8 bits
Scan type                                : Progressive
Bits/(Pixel*Frame)                       : 0.022
Stream size                              : 9.75 MiB (53%)
Default                                  : Yes
Forced                                   : No
Color range                              : Limited
Color primaries                          : BT.709
Transfer characteristics                 : BT.709
Matrix coefficients                      : BT.709

Audio
ID                                       : 3
Format                                   : AAC LC
Format/Info                              : Advanced Audio Codec Low Complexity
Codec ID                                 : A_AAC-2
Duration                                 : 1 min 14 s
Bit rate                                 : 128 kb/s
Channel(s)                               : 2 channels
Channel layout                           : L R
Sampling rate                            : 44.1 kHz
Frame rate                               : 43.066 FPS (1024 SPF)
Compression mode                         : Lossy
Stream size                              : 1.13 MiB (6%)
Language                                 : English
Default                                  : Yes
Forced                                   : No

Text
ID                                       : 1
Format                                   : ASS
Codec ID                                 : S_TEXT/ASS
Codec ID/Info                            : Advanced Sub Station Alpha
Duration                                 : 1 min 9 s
Bit rate                                 : 190 b/s
Count of elements                        : 39
Compression mode                         : Lossless
Stream size                              : 1.61 KiB (0%)
Title                                    : English
Language                                 : English
Default                                  : Yes
Forced                                   : No
beta
Anime DDL+NZB mirror
Current Time: 11/08/2020 01:08



About/FAQs