File Size1.408 GB (1,512,354,110 bytes)
DownloadClickNUpload | GoFile | MdiaLoad
DailyUploads: Part1, Part2
KrakenFiles: Part1, Part2
MultiUp: Part1
  • BdUpload
  • DownAce
  • Fichier
  • FileCloud
  • Filerio
  • FilesCdn
  • IndiShare
  • Kbagi
  • Turbobit
  • UpToBox
  • Uppit
, Part2
  • BdUpload
  • DownAce
  • Fichier
  • FileCloud
  • Filerio
  • FilesCdn
  • IndiShare
  • Kbagi
  • Turbobit
  • UpToBox
  • Uppit
, Part3
  • BdUpload
  • DownAce
  • Fichier
  • FileCloud
  • Filerio
  • FilesCdn
  • IndiShare
  • Kbagi
  • Turbobit
  • UpToBox
  • Uppit
HashesCRC32: 2D059D8A, MD5: C063C9E96C2DF886C567ABFB3E9ABAEC, SHA1: D5DE517D0DD3CEDF158FE4BC7988224E991F16D8, SHA256: E14C2E72821F6B9791C2752C2A7CD5F377F2C12B3E2D35D856D71607E7B0D1BC, ED2K: E62CF51F01E97725AFF10C4DCB47E1A8
Screenshots
screenshotscreenshotscreenshotscreenshotscreenshot
SubtitlesAll Attachments | Forced [eng, ASS], eng [ASS], SDH [eng, SRT], Saudi Arabia [ara, ASS], ger [ASS], Latin American [spa, ASS], European [spa, ASS], fre [ASS], ind [ASS], ita [ASS], may [ASS], Brazilian [por, ASS], rus [ASS], tha [ASS], vie [ASS]
Additional Info
General
Unique ID                                : 37234337312579327931655666228609161107 (0x1C0312909A716C3A6B5CF98F49841793)
Complete name                            : Chillin.in.Another.World.with.Level.2.Super.Cheat.Powers.S01E07.Toward.Their.Respective.Futures.1080p.CR.WEB-DL.AAC2.0.H.264.DUAL-VARYG.mkv
Format                                   : Matroska
Format version                           : Version 4
File size                                : 1.41 GiB
Duration                                 : 24 min 1 s
Overall bit rate                         : 8 395 kb/s
Frame rate                               : 23.976 FPS
Writing application                      : mkvmerge v84.0 ('Sleeper') 64-bit
Writing library                          : libebml v1.4.5 + libmatroska v1.7.1
Attachments                              : AdobeArabic-Bold.otf / RixLoveFool.ttf / arialbd.ttf / arial-unicode-ms_0.ttf / georgia.ttf / tcnet.ttf / tahoma.ttf / times.ttf / timesbd_0.ttf / trebuc.ttf / trebucbd.ttf

Video
ID                                       : 1
Format                                   : AVC
Format/Info                              : Advanced Video Codec
Format profile                           : High@L4
Format settings                          : CABAC / 4 Ref Frames
Format settings, CABAC                   : Yes
Format settings, Reference frames        : 4 frames
Codec ID                                 : V_MPEG4/ISO/AVC
Duration                                 : 24 min 0 s
Bit rate                                 : 8 000 kb/s
Width                                    : 1 920 pixels
Height                                   : 1 080 pixels
Display aspect ratio                     : 16:9
Frame rate mode                          : Constant
Frame rate                               : 23.976 (24000/1001) FPS
Color space                              : YUV
Chroma subsampling                       : 4:2:0
Bit depth                                : 8 bits
Scan type                                : Progressive
Bits/(Pixel*Frame)                       : 0.161
Stream size                              : 1.34 GiB (95%)
Writing library                          : x264 core 164
Encoding settings                        : cabac=1 / ref=4 / deblock=1:1:1 / analyse=0x3:0x113 / me=hex / subme=8 / psy=1 / psy_rd=0.40:0.00 / mixed_ref=1 / me_range=16 / chroma_me=1 / trellis=2 / 8x8dct=1 / cqm=0 / deadzone=21,11 / fast_pskip=1 / chroma_qp_offset=-2 / threads=12 / lookahead_threads=2 / sliced_threads=0 / nr=0 / decimate=1 / interlaced=0 / bluray_compat=0 / constrained_intra=0 / bframes=0 / weightp=2 / keyint=96 / keyint_min=48 / scenecut=40 / intra_refresh=0 / rc_lookahead=48 / rc=2pass / mbtree=1 / bitrate=8000 / ratetol=1.0 / qcomp=0.60 / qpmin=0 / qpmax=69 / qpstep=4 / cplxblur=20.0 / qblur=0.5 / vbv_maxrate=12000 / vbv_bufsize=18000 / nal_hrd=none / filler=0 / ip_ratio=1.40 / aq=1:0.60
Default                                  : Yes
Forced                                   : No
Color range                              : Limited
Color primaries                          : BT.709
Transfer characteristics                 : BT.709
Matrix coefficients                      : BT.709

Audio #1
ID                                       : 2
Format                                   : AAC LC
Format/Info                              : Advanced Audio Codec Low Complexity
Codec ID                                 : A_AAC-2
Duration                                 : 24 min 0 s
Bit rate                                 : 128 kb/s
Channel(s)                               : 2 channels
Channel layout                           : L R
Sampling rate                            : 44.1 kHz
Frame rate                               : 43.066 FPS (1024 SPF)
Compression mode                         : Lossy
Stream size                              : 22.0 MiB (2%)
Language                                 : Japanese
Default                                  : Yes
Forced                                   : No

Audio #2
ID                                       : 3
Format                                   : AAC LC
Format/Info                              : Advanced Audio Codec Low Complexity
Codec ID                                 : A_AAC-2
Duration                                 : 24 min 0 s
Bit rate                                 : 128 kb/s
Channel(s)                               : 2 channels
Channel layout                           : L R
Sampling rate                            : 44.1 kHz
Frame rate                               : 43.066 FPS (1024 SPF)
Compression mode                         : Lossy
Stream size                              : 22.0 MiB (2%)
Language                                 : English
Default                                  : No
Forced                                   : No

Text #1
ID                                       : 4
Format                                   : ASS
Codec ID                                 : S_TEXT/ASS
Codec ID/Info                            : Advanced Sub Station Alpha
Duration                                 : 20 min 50 s
Bit rate                                 : 1 b/s
Frame rate                               : 0.002 FPS
Count of elements                        : 3
Compression mode                         : Lossless
Stream size                              : 165 Bytes (0%)
Title                                    : Forced
Language                                 : English
Default                                  : No
Forced                                   : Yes

Text #2
ID                                       : 5
Format                                   : ASS
Codec ID                                 : S_TEXT/ASS
Codec ID/Info                            : Advanced Sub Station Alpha
Duration                                 : 23 min 58 s
Bit rate                                 : 122 b/s
Frame rate                               : 0.248 FPS
Count of elements                        : 357
Compression mode                         : Lossless
Stream size                              : 21.5 KiB (0%)
Language                                 : English
Default                                  : Yes
Forced                                   : No

Text #3
ID                                       : 6
Format                                   : UTF-8
Codec ID                                 : S_TEXT/UTF8
Codec ID/Info                            : UTF-8 Plain Text
Duration                                 : 23 min 57 s
Bit rate                                 : 98 b/s
Frame rate                               : 0.396 FPS
Count of elements                        : 569
Stream size                              : 17.2 KiB (0%)
Title                                    : SDH
Language                                 : English
Default                                  : No
Forced                                   : No

Text #4
ID                                       : 7
Format                                   : ASS
Codec ID                                 : S_TEXT/ASS
Codec ID/Info                            : Advanced Sub Station Alpha
Duration                                 : 23 min 58 s
Bit rate                                 : 159 b/s
Frame rate                               : 0.248 FPS
Count of elements                        : 357
Compression mode                         : Lossless
Stream size                              : 28.0 KiB (0%)
Title                                    : Saudi Arabia
Language                                 : Arabic (SA)
Default                                  : No
Forced                                   : No

Text #5
ID                                       : 8
Format                                   : ASS
Codec ID                                 : S_TEXT/ASS
Codec ID/Info                            : Advanced Sub Station Alpha
Duration                                 : 23 min 58 s
Bit rate                                 : 141 b/s
Frame rate                               : 0.263 FPS
Count of elements                        : 378
Compression mode                         : Lossless
Stream size                              : 24.8 KiB (0%)
Language                                 : German
Default                                  : No
Forced                                   : No

Text #6
ID                                       : 9
Format                                   : ASS
Codec ID                                 : S_TEXT/ASS
Codec ID/Info                            : Advanced Sub Station Alpha
Duration                                 : 23 min 58 s
Bit rate                                 : 121 b/s
Frame rate                               : 0.243 FPS
Count of elements                        : 349
Compression mode                         : Lossless
Stream size                              : 21.4 KiB (0%)
Title                                    : Latin American
Language                                 : Spanish (Latin America)
Default                                  : No
Forced                                   : No

Text #7
ID                                       : 10
Format                                   : ASS
Codec ID                                 : S_TEXT/ASS
Codec ID/Info                            : Advanced Sub Station Alpha
Duration                                 : 23 min 58 s
Bit rate                                 : 121 b/s
Frame rate                               : 0.243 FPS
Count of elements                        : 349
Compression mode                         : Lossless
Stream size                              : 21.4 KiB (0%)
Title                                    : European
Language                                 : Spanish (ES)
Default                                  : No
Forced                                   : No

Text #8
ID                                       : 11
Format                                   : ASS
Codec ID                                 : S_TEXT/ASS
Codec ID/Info                            : Advanced Sub Station Alpha
Duration                                 : 23 min 58 s
Bit rate                                 : 136 b/s
Frame rate                               : 0.256 FPS
Count of elements                        : 369
Compression mode                         : Lossless
Stream size                              : 23.9 KiB (0%)
Language                                 : French
Default                                  : No
Forced                                   : No

Text #9
ID                                       : 12
Format                                   : ASS
Codec ID                                 : S_TEXT/ASS
Codec ID/Info                            : Advanced Sub Station Alpha
Duration                                 : 24 min 0 s
Bit rate                                 : 138 b/s
Frame rate                               : 0.299 FPS
Count of elements                        : 430
Compression mode                         : Lossless
Stream size                              : 24.4 KiB (0%)
Language                                 : Indonesian
Default                                  : No
Forced                                   : No

Text #10
ID                                       : 13
Format                                   : ASS
Codec ID                                 : S_TEXT/ASS
Codec ID/Info                            : Advanced Sub Station Alpha
Duration                                 : 23 min 58 s
Bit rate                                 : 123 b/s
Frame rate                               : 0.245 FPS
Count of elements                        : 353
Compression mode                         : Lossless
Stream size                              : 21.7 KiB (0%)
Language                                 : Italian
Default                                  : No
Forced                                   : No

Text #11
ID                                       : 14
Format                                   : ASS
Codec ID                                 : S_TEXT/ASS
Codec ID/Info                            : Advanced Sub Station Alpha
Duration                                 : 24 min 0 s
Bit rate                                 : 138 b/s
Frame rate                               : 0.296 FPS
Count of elements                        : 426
Compression mode                         : Lossless
Stream size                              : 24.4 KiB (0%)
Language                                 : Malay
Default                                  : No
Forced                                   : No

Text #12
ID                                       : 15
Format                                   : ASS
Codec ID                                 : S_TEXT/ASS
Codec ID/Info                            : Advanced Sub Station Alpha
Duration                                 : 23 min 58 s
Bit rate                                 : 126 b/s
Frame rate                               : 0.247 FPS
Count of elements                        : 356
Compression mode                         : Lossless
Stream size                              : 22.2 KiB (0%)
Title                                    : Brazilian
Language                                 : Portuguese (BR)
Default                                  : No
Forced                                   : No

Text #13
ID                                       : 16
Format                                   : ASS
Codec ID                                 : S_TEXT/ASS
Codec ID/Info                            : Advanced Sub Station Alpha
Duration                                 : 23 min 58 s
Bit rate                                 : 165 b/s
Frame rate                               : 0.250 FPS
Count of elements                        : 360
Compression mode                         : Lossless
Stream size                              : 29.1 KiB (0%)
Language                                 : Russian
Default                                  : No
Forced                                   : No

Text #14
ID                                       : 17
Format                                   : ASS
Codec ID                                 : S_TEXT/ASS
Codec ID/Info                            : Advanced Sub Station Alpha
Duration                                 : 24 min 0 s
Bit rate                                 : 241 b/s
Frame rate                               : 0.306 FPS
Count of elements                        : 440
Compression mode                         : Lossless
Stream size                              : 42.4 KiB (0%)
Language                                 : Thai
Default                                  : No
Forced                                   : No

Text #15
ID                                       : 18
Format                                   : ASS
Codec ID                                 : S_TEXT/ASS
Codec ID/Info                            : Advanced Sub Station Alpha
Duration                                 : 23 min 59 s
Bit rate                                 : 163 b/s
Frame rate                               : 0.306 FPS
Count of elements                        : 440
Compression mode                         : Lossless
Stream size                              : 28.8 KiB (0%)
Language                                 : Vietnamese
Default                                  : No
Forced                                   : No

Menu
00:00:00.000                             : en:Scene 1
00:01:40.000                             : en:Intro
00:03:10.000                             : en:Scene 3
00:22:10.000                             : en:Credits
00:23:40.000                             : en:Preview
beta
Anime DDL+NZB mirror
Current Time: 12/07/2024 23:53



About/FAQs

Discord