File Size442.2 MB (463,718,589 bytes)
DownloadClickNUpload | DownloadGG | KrakenFiles | MultiUp
  • BdUpload
  • DownAce
  • Fichier
  • FileCloud
  • Filerio
  • FilesCdn
  • IndiShare
  • Kbagi
  • Turbobit
  • UpToBox
  • Uppit
| ZippyShare
HashesCRC32: 31C90E0D, MD5: B4D8D53319835E0D51A01568F42EDEBC, SHA1: A6DEF6334B567BA2F76D5664951454832A6EA078, SHA256: 33A917EC79A22E888A2B0D1BA12FA201AD1BF35B220A705AF298C9E79C8576BC, ED2K: 7B303A62C4CE45CC4B0C79675ABABA86
Screenshots
screenshotscreenshotscreenshotscreenshotscreenshot
SubtitlesAll Attachments | English [eng, ASS]
Additional Info
General
Unique ID                                : 271626024361132940325416787389775925674 (0xCC5944F75881903309158D515BE8D1AA)
Complete name                            : [Chihiro] Yuusha, Yamemasu 12 [1080p Hi10P AAC][31C90E0D].mkv
Format                                   : Matroska
Format version                           : Version 4
File size                                : 442 MiB
Duration                                 : 23 min 40 s
Overall bit rate                         : 2 612 kb/s
Movie name                               : Yuusha, Yamemasu 12
Encoded date                             : UTC 2022-07-03 14:47:28
Writing application                      : mkvmerge v47.0.0 ('Black Flag') 64-bit
Writing library                          : libebml v1.3.10 + libmatroska v1.5.2
Attachments                              : A-OTF Ryumin Pr6 H-KL.otf / Barmeno Extra Bold.ttf / Dimbo Regular.ttf / HighVoltage Rough.ttf / IMFellEnglish-Regular.ttf / Marcellus-Regular.ttf / Rosario-Bold.otf / Typography Times Italic.ttf / A-OTF Ryumin Pr6 EB-KL.otf

Video
ID                                       : 1
Format                                   : AVC
Format/Info                              : Advanced Video Codec
Format profile                           : High 10@L5.1
Format settings                          : CABAC / 16 Ref Frames
Format settings, CABAC                   : Yes
Format settings, Reference frames        : 16 frames
Codec ID                                 : V_MPEG4/ISO/AVC
Duration                                 : 23 min 40 s
Bit rate                                 : 2 267 kb/s
Width                                    : 1 920 pixels
Height                                   : 1 080 pixels
Display aspect ratio                     : 16:9
Frame rate mode                          : Constant
Frame rate                               : 23.976 (24000/1001) FPS
Color space                              : YUV
Chroma subsampling                       : 4:2:0
Bit depth                                : 10 bits
Scan type                                : Progressive
Bits/(Pixel*Frame)                       : 0.046
Stream size                              : 384 MiB (87%)
Title                                    : Yuusha, Yamemasu 12
Writing library                          : x264 core 164 r3081 19856cc
Encoding settings                        : cabac=1 / ref=16 / deblock=1:-2:-1 / analyse=0x3:0x133 / me=umh / subme=10 / psy=1 / psy_rd=0.70:0.00 / mixed_ref=1 / me_range=48 / chroma_me=1 / trellis=2 / 8x8dct=1 / cqm=0 / deadzone=21,11 / fast_pskip=0 / chroma_qp_offset=-2 / threads=4 / lookahead_threads=1 / sliced_threads=0 / nr=0 / decimate=0 / interlaced=0 / bluray_compat=0 / stitchable=1 / constrained_intra=0 / bframes=8 / b_pyramid=2 / b_adapt=2 / b_bias=0 / direct=3 / weightb=1 / open_gop=0 / weightp=2 / keyint=infinite / keyint_min=1 / scenecut=0 / intra_refresh=0 / rc_lookahead=96 / rc=crf / mbtree=1 / crf=16.0 / qcomp=0.65 / qpmin=0 / qpmax=81 / qpstep=4 / ip_ratio=1.30 / aq=3:0.70
Default                                  : No
Forced                                   : No
Color range                              : Limited
Color primaries                          : BT.709
Transfer characteristics                 : BT.709
Matrix coefficients                      : BT.709

Audio
ID                                       : 2
Format                                   : AAC LC
Format/Info                              : Advanced Audio Codec Low Complexity
Codec ID                                 : A_AAC-2
Duration                                 : 23 min 40 s
Bit rate                                 : 315 kb/s
Channel(s)                               : 2 channels
Channel layout                           : L R
Sampling rate                            : 48.0 kHz
Frame rate                               : 46.875 FPS (1024 SPF)
Compression mode                         : Lossy
Stream size                              : 53.3 MiB (12%)
Title                                    : 2.0 AAC
Language                                 : Japanese
Default                                  : Yes
Forced                                   : No

Text
ID                                       : 3
Format                                   : ASS
Codec ID                                 : S_TEXT/ASS
Codec ID/Info                            : Advanced Sub Station Alpha
Duration                                 : 23 min 33 s
Bit rate                                 : 16.7 kb/s
Count of elements                        : 20778
Compression mode                         : Lossless
Stream size                              : 2.81 MiB (1%)
Title                                    : English
Language                                 : English
Default                                  : Yes
Forced                                   : No

Menu
00:00:00.000                             : :Opening
00:01:30.007                             : :Yuusha, Yamemasu 12
00:22:07.618                             : :Ending
beta
Anime DDL+NZB mirror
Current Time: 23/02/2024 01:11



About/FAQs

Discord