File Size946.0 MB (991,993,355 bytes)
DownloadClickNUpload | DownloadGG | GoFile | KrakenFiles | MdiaLoad
MultiUp: Part1
  • BdUpload
  • DownAce
  • Fichier
  • FileCloud
  • Filerio
  • FilesCdn
  • IndiShare
  • Kbagi
  • Turbobit
  • UpToBox
  • Uppit
, Part2
  • BdUpload
  • DownAce
  • Fichier
  • FileCloud
  • Filerio
  • FilesCdn
  • IndiShare
  • Kbagi
  • Turbobit
  • UpToBox
  • Uppit
HashesCRC32: 8D32FA64, MD5: 0F044D1112598D0B0896A1380D2FB9FC, SHA1: E51642256754E47D6BF5FF02A9DC4410D2D8D2B2, SHA256: C7905EF841D5774F5B4EAAB799744BF6D47A75CE6034AD843EA36DDA914498A8, ED2K: D8574DFA9F5DFC670FBBE7A84D6287C3
Screenshots
screenshotscreenshotscreenshotscreenshotscreenshot
SubtitlesAll Attachments | English [eng, ASS]
Additional Info
General
Unique ID                                : 168016559615339787755673328784401750585 (0x7E66CFF4F6E50EBA21DB36B7A01BDA39)
Complete name                            : [Chihiro] Undead Girl Murder Farce 06 [1080p Hi10P AAC][8D32FA64].mkv
Format                                   : Matroska
Format version                           : Version 4
File size                                : 946 MiB
Duration                                 : 22 min 50 s
Overall bit rate                         : 5 792 kb/s
Movie name                               : Undead Girl Murder Farce 06
Encoded date                             : UTC 2023-08-25 00:39:30
Writing application                      : mkvmerge v73.0.0 ('25 or 6 to 4') 64-bit
Writing library                          : libebml v1.4.4 + libmatroska v1.7.1
Attachments                              : Barmeno-Medium.ttf / Bitstream Arrus Black BT.ttf / saira-condensed.semibold.ttf / Vesta-Bold.ttf

Video
ID                                       : 1
Format                                   : AVC
Format/Info                              : Advanced Video Codec
Format profile                           : High 10@L5
Format settings                          : CABAC / 5 Ref Frames
Format settings, CABAC                   : Yes
Format settings, Reference frames        : 5 frames
Codec ID                                 : V_MPEG4/ISO/AVC
Duration                                 : 22 min 50 s
Bit rate                                 : 5 654 kb/s
Width                                    : 1 920 pixels
Height                                   : 1 080 pixels
Display aspect ratio                     : 16:9
Frame rate mode                          : Constant
Frame rate                               : 23.976 (24000/1001) FPS
Color space                              : YUV
Chroma subsampling                       : 4:2:0
Bit depth                                : 10 bits
Scan type                                : Progressive
Bits/(Pixel*Frame)                       : 0.114
Stream size                              : 923 MiB (98%)
Title                                    : Undead Girl Murder Farce 06
Writing library                          : x264 core 160 r3000 33f9e14
Encoding settings                        : cabac=1 / ref=5 / deblock=1:-2:-2 / analyse=0x3:0x133 / me=umh / subme=10 / psy=1 / psy_rd=0.80:0.00 / mixed_ref=1 / me_range=24 / chroma_me=1 / trellis=2 / 8x8dct=1 / cqm=0 / deadzone=21,11 / fast_pskip=1 / chroma_qp_offset=-2 / threads=34 / lookahead_threads=5 / sliced_threads=0 / nr=0 / decimate=1 / interlaced=0 / bluray_compat=0 / constrained_intra=0 / bframes=8 / b_pyramid=2 / b_adapt=2 / b_bias=0 / direct=3 / weightb=1 / open_gop=0 / weightp=2 / keyint=250 / keyint_min=23 / scenecut=40 / intra_refresh=0 / rc=crf / mbtree=0 / crf=15.0 / qcomp=0.80 / qpmin=0 / qpmax=81 / qpstep=4 / ip_ratio=1.40 / pb_ratio=1.30 / aq=3:0.70
Default                                  : Yes
Forced                                   : No
Color range                              : Limited
Matrix coefficients                      : BT.709

Audio
ID                                       : 2
Format                                   : AAC LC
Format/Info                              : Advanced Audio Codec Low Complexity
Codec ID                                 : A_AAC-2
Duration                                 : 22 min 50 s
Bit rate                                 : 128 kb/s
Channel(s)                               : 2 channels
Channel layout                           : L R
Sampling rate                            : 44.1 kHz
Frame rate                               : 43.066 FPS (1024 SPF)
Compression mode                         : Lossy
Stream size                              : 20.9 MiB (2%)
Title                                    : 2.0 AAC
Language                                 : Japanese
Default                                  : Yes
Forced                                   : No

Text
ID                                       : 3
Format                                   : ASS
Codec ID                                 : S_TEXT/ASS
Codec ID/Info                            : Advanced Sub Station Alpha
Duration                                 : 22 min 43 s
Bit rate                                 : 4 664 b/s
Count of elements                        : 8140
Compression mode                         : Lossless
Stream size                              : 777 KiB (0%)
Title                                    : English
Language                                 : English
Default                                  : Yes
Forced                                   : No

Menu
00:00:00.000                             : :Prologue
00:00:53.053                             : :Opening
00:02:23.018                             : :Undead Girl Murder Farce 06
00:21:20.029                             : :Ending
beta
Anime DDL+NZB mirror
Current Time: 24/06/2024 13:58



About/FAQs

Discord