File Size200.2 MB (209,884,504 bytes)
DownloadAnonFiles | ClickNUpload | DownloadGG | DropAPK | MultiUp
  • BdUpload
  • DownAce
  • Fichier
  • FileCloud
  • Filerio
  • FilesCdn
  • IndiShare
  • Kbagi
  • Turbobit
  • UpToBox
  • Uppit
| ZippyShare
HashesCRC32: DB9E031E, MD5: A207BC174D0C4F92596322C2CC22F203, SHA1: 61BEBD1B8CCE3507041828160DA3CADB21AF0FBE, SHA256: B47B9C3DDE1C2109314759EA560DE4C97A90174165C77B67E22D12723E976542, ED2K: 1A5B5995EE19CE8472F02FDDAF87EB91
Screenshots
screenshotscreenshotscreenshotscreenshotscreenshot
SubtitlesAll Attachments | English [eng, ASS]
Additional Info
General
Unique ID                                : 84924298305081992952836191229623135598 (0x3FE3D32D6119C5DAFB6CE61A36DBED6E)
Complete name                            : [Chihiro] Taisho Otome Fairy Tale 01 [720p Hi10P AAC][DB9E031E].mkv
Format                                   : Matroska
Format version                           : Version 4
File size                                : 200 MiB
Duration                                 : 23 min 49 s
Overall bit rate                         : 1 174 kb/s
Movie name                               : Taisho Otome Fairy Tale 01
Encoded date                             : UTC 2021-10-13 07:34:37
Writing application                      : mkvmerge v47.0.0 ('Black Flag') 64-bit
Writing library                          : libebml v1.3.10 + libmatroska v1.5.2
Cover                                    : Yes
Attachments                              : Chasing Embers Demo Version.ttf / edosz.ttf / Cherry Blue.ttf / Frederick Greatong.otf / JennaSue.ttf / Louis George Cafe.ttf / manga_speak.ttf / MilkyNice-Clean.otf / Regis-Semi Bold.ttf / VanioTrial-Regular.ttf / antique_book_cover.otf / Awesome Possum Demo.otf / Bright DEMO.otf / CronosPro-Semibold.ttf / Delight Candles .ttf / Rosario-Bold.otf / Rosario-BoldItalic.otf

Video
ID                                       : 1
Format                                   : AVC
Format/Info                              : Advanced Video Codec
Format profile                           : High 10@L5
Format settings                          : CABAC / 16 Ref Frames
Format settings, CABAC                   : Yes
Format settings, ReFrames                : 16 frames
Codec ID                                 : V_MPEG4/ISO/AVC
Duration                                 : 23 min 49 s
Bit rate                                 : 844 kb/s
Width                                    : 1 280 pixels
Height                                   : 720 pixels
Display aspect ratio                     : 16:9
Frame rate mode                          : Constant
Frame rate                               : 23.976 (24000/1001) FPS
Color space                              : YUV
Chroma subsampling                       : 4:2:0
Bit depth                                : 10 bits
Scan type                                : Progressive
Bits/(Pixel*Frame)                       : 0.038
Stream size                              : 144 MiB (72%)
Title                                    : Taisho Otome Fairy Tale 01
Writing library                          : x264 core 161 r3039 544c61f
Encoding settings                        : cabac=1 / ref=16 / deblock=1:-2:-1 / analyse=0x3:0x133 / me=umh / subme=10 / psy=1 / psy_rd=0.70:0.00 / mixed_ref=1 / me_range=32 / chroma_me=1 / trellis=2 / 8x8dct=1 / cqm=0 / deadzone=21,11 / fast_pskip=0 / chroma_qp_offset=-2 / threads=4 / lookahead_threads=1 / sliced_threads=0 / nr=0 / decimate=0 / interlaced=0 / bluray_compat=0 / stitchable=1 / constrained_intra=0 / bframes=8 / b_pyramid=2 / b_adapt=2 / b_bias=0 / direct=3 / weightb=1 / open_gop=0 / weightp=2 / keyint=infinite / keyint_min=1 / scenecut=0 / intra_refresh=0 / rc_lookahead=250 / rc=crf / mbtree=1 / crf=17.0 / qcomp=0.65 / qpmin=0 / qpmax=81 / qpstep=4 / ip_ratio=1.30 / aq=3:0.70
Default                                  : Yes
Forced                                   : No
Color range                              : Limited
Color primaries                          : BT.709
Transfer characteristics                 : BT.709
Matrix coefficients                      : BT.709

Audio
ID                                       : 2
Format                                   : AAC LC
Format/Info                              : Advanced Audio Codec Low Complexity
Codec ID                                 : A_AAC-2
Duration                                 : 23 min 49 s
Bit rate                                 : 256 kb/s
Channel(s)                               : 2 channels
Channel layout                           : L R
Sampling rate                            : 48.0 kHz
Frame rate                               : 46.875 FPS (1024 SPF)
Compression mode                         : Lossy
Stream size                              : 43.6 MiB (22%)
Title                                    : 2.0 AAC
Language                                 : Japanese
Default                                  : Yes
Forced                                   : No

Text
ID                                       : 3
Format                                   : ASS
Codec ID                                 : S_TEXT/ASS
Codec ID/Info                            : Advanced Sub Station Alpha
Duration                                 : 23 min 42 s
Bit rate                                 : 55.7 kb/s
Count of elements                        : 23834
Compression mode                         : Lossless
Stream size                              : 9.44 MiB (5%)
Title                                    : English
Language                                 : English
Default                                  : Yes
Forced                                   : No

Menu
00:00:00.000                             : :Prologue
00:02:47.041                             : :Opening
00:04:17.047                             : :Taisho Otome Fairy Tale 01
00:21:59.978                             : :Ending
00:23:29.943                             : :Preview
beta
Anime DDL+NZB mirror
Current Time: 03/12/2021 13:14



About/FAQs

Discord