File Size466.0 MB (488,612,922 bytes)
DownloadClickNUpload | DownloadGG | DropAPK | MultiUp
  • BdUpload
  • DownAce
  • Fichier
  • FileCloud
  • Filerio
  • FilesCdn
  • IndiShare
  • Kbagi
  • Turbobit
  • UpToBox
  • Uppit
| SolidFiles | ZippyShare
HashesCRC32: 371F1C7C, MD5: 295AA4E515AA9E85445BB7ED12BA1568, SHA1: F387E60B0C8BD344E58BAACF9E9CCE83DAF57CDB, SHA256: 06F99CBF8966C45DE5CBA41132154975BAC8EC395B5894AF281833F395907D5C, ED2K: C0E5F25694716E4596C0E0F286D936AE
Screenshots
screenshotscreenshotscreenshotscreenshotscreenshot
SubtitlesAll Attachments | eng [ASS]
Additional Info
General
Unique ID                                : 261004974166186992088490610520492386713 (0xC45BBAC301BDB845CF0301086564A999)
Complete name                            : [Chihiro] Otome Game no Hametsu Flag Shika Nai Akuyaku Reijou ni Tensei Shiteshimatta X 03 [1080p Hi10P FLAC][371F1C7C].mkv
Format                                   : Matroska
Format version                           : Version 4
File size                                : 466 MiB
Duration                                 : 23 min 34 s
Overall bit rate                         : 2 763 kb/s
Movie name                               : Hamefura X 03
Encoded date                             : UTC 2021-07-21 07:57:53
Writing application                      : mkvmerge v59.0.0 ('Shining Star') 64-bit
Writing library                          : libebml v1.4.2 + libmatroska v1.6.4
Attachments                              : AVERIASERIF-BOLD.TTF / AveriaSerif-Light.ttf / Hand of Diesel.ttf / Rosario-Bold.otf / Rosario-BoldItalic.otf / VAG Rounded BT.ttf

Video
ID                                       : 1
Format                                   : AVC
Format/Info                              : Advanced Video Codec
Format profile                           : High 10@L5
Format settings                          : CABAC / 9 Ref Frames
Format settings, CABAC                   : Yes
Format settings, ReFrames                : 9 frames
Codec ID                                 : V_MPEG4/ISO/AVC
Duration                                 : 23 min 34 s
Bit rate                                 : 2 534 kb/s
Width                                    : 1 920 pixels
Height                                   : 1 080 pixels
Display aspect ratio                     : 16:9
Frame rate mode                          : Constant
Frame rate                               : 23.976 (24000/1001) FPS
Color space                              : YUV
Chroma subsampling                       : 4:2:0
Bit depth                                : 10 bits
Scan type                                : Progressive
Bits/(Pixel*Frame)                       : 0.051
Stream size                              : 427 MiB (92%)
Title                                    : Hamefura X 03
Writing library                          : x264 core 160 r3000 33f9e14
Encoding settings                        : cabac=1 / ref=9 / deblock=1:-1:-2 / analyse=0x3:0x133 / me=umh / subme=10 / psy=1 / psy_rd=0.80:0.10 / mixed_ref=1 / me_range=24 / chroma_me=1 / trellis=2 / 8x8dct=1 / cqm=0 / deadzone=21,11 / fast_pskip=1 / chroma_qp_offset=-3 / threads=34 / lookahead_threads=5 / sliced_threads=0 / nr=0 / decimate=1 / interlaced=0 / bluray_compat=0 / constrained_intra=0 / bframes=8 / b_pyramid=2 / b_adapt=2 / b_bias=0 / direct=3 / weightb=1 / open_gop=0 / weightp=2 / keyint=250 / keyint_min=23 / scenecut=40 / intra_refresh=0 / rc_lookahead=120 / rc=crf / mbtree=1 / crf=18.0 / qcomp=0.80 / qpmin=0 / qpmax=81 / qpstep=4 / ip_ratio=1.40 / aq=3:0.70
Default                                  : Yes
Forced                                   : No
Color range                              : Limited
Matrix coefficients                      : BT.709

Audio
ID                                       : 2
Format                                   : E-AC-3
Format/Info                              : Enhanced AC-3
Commercial name                          : Dolby Digital Plus
Codec ID                                 : A_EAC3
Duration                                 : 23 min 34 s
Bit rate mode                            : Constant
Bit rate                                 : 224 kb/s
Channel(s)                               : 2 channels
Channel layout                           : L R
Sampling rate                            : 48.0 kHz
Frame rate                               : 31.250 FPS (1536 SPF)
Compression mode                         : Lossy
Stream size                              : 37.8 MiB (8%)
Title                                    : 2.0 AC3
Language                                 : Japanese
Service kind                             : Complete Main
Default                                  : Yes
Forced                                   : No

Text
ID                                       : 3
Format                                   : ASS
Codec ID                                 : S_TEXT/ASS
Codec ID/Info                            : Advanced Sub Station Alpha
Duration                                 : 23 min 17 s
Bit rate                                 : 502 b/s
Count of elements                        : 1267
Compression mode                         : Lossless
Stream size                              : 85.7 KiB (0%)
Language                                 : English
Default                                  : Yes
Forced                                   : No

Menu
00:00:00.000                             : :Otome Game no Hametsu Flag Shika Nai Akuyaku Reijou ni Tensei Shiteshimatta X 03
00:22:04.907                             : :Ending
beta
Anime DDL+NZB mirror
Current Time: 26/01/2022 07:47



About/FAQs

Discord