File Size234.7 MB (246,065,525 bytes)
DownloadAnonFiles | ClickNUpload | DownloadGG | DropAPK | MultiUp
  • BdUpload
  • DownAce
  • Fichier
  • FileCloud
  • Filerio
  • FilesCdn
  • IndiShare
  • Kbagi
  • Turbobit
  • UpToBox
  • Uppit
| SolidFiles | ZippyShare
HashesCRC32: 1CBB264C, MD5: 5334F7CB0202832533E2CAD3A8455DE6, SHA1: 8B53FCD7535117EAA6A95646B47661A0E0472698, SHA256: 69E81B557F2D2355B94BB8CD6FC3A399C52A6DD01E14A6E7EC5E2ED9AFE8468C, ED2K: 8448EDC887A3812436DE009BDB68B98A
Screenshots
screenshotscreenshotscreenshotscreenshotscreenshot
SubtitlesAll Attachments | eng [ASS]
Additional Info
General
Unique ID                                : 87090631258968220594885544014899527987 (0x41850BA3612731483BFEF4BF08974133)
Complete name                            : [Chihiro] Otome Game no Hametsu Flag Shika Nai Akuyaku Reijou ni Tensei Shiteshimatta X 03 [720p Hi10P EAC3][1CBB264C].mkv
Format                                   : Matroska
Format version                           : Version 4
File size                                : 235 MiB
Duration                                 : 23 min 34 s
Overall bit rate                         : 1 391 kb/s
Movie name                               : Hamefura X 03
Encoded date                             : UTC 2021-07-21 07:57:58
Writing application                      : mkvmerge v59.0.0 ('Shining Star') 64-bit
Writing library                          : libebml v1.4.2 + libmatroska v1.6.4
Attachments                              : AVERIASERIF-BOLD.TTF / AveriaSerif-Light.ttf / Hand of Diesel.ttf / Rosario-Bold.otf / Rosario-BoldItalic.otf / VAG Rounded BT.ttf

Video
ID                                       : 1
Format                                   : AVC
Format/Info                              : Advanced Video Codec
Format profile                           : High 10@L4
Format settings                          : CABAC / 9 Ref Frames
Format settings, CABAC                   : Yes
Format settings, ReFrames                : 9 frames
Codec ID                                 : V_MPEG4/ISO/AVC
Duration                                 : 23 min 34 s
Bit rate                                 : 1 163 kb/s
Width                                    : 1 280 pixels
Height                                   : 720 pixels
Display aspect ratio                     : 16:9
Frame rate mode                          : Constant
Frame rate                               : 23.976 (24000/1001) FPS
Color space                              : YUV
Chroma subsampling                       : 4:2:0
Bit depth                                : 10 bits
Scan type                                : Progressive
Bits/(Pixel*Frame)                       : 0.053
Stream size                              : 196 MiB (84%)
Title                                    : Hamefura X 03
Writing library                          : x264 core 160 r3000 33f9e14
Encoding settings                        : cabac=1 / ref=9 / deblock=1:-1:-2 / analyse=0x3:0x133 / me=umh / subme=10 / psy=1 / psy_rd=0.80:0.10 / mixed_ref=1 / me_range=24 / chroma_me=1 / trellis=2 / 8x8dct=1 / cqm=0 / deadzone=21,11 / fast_pskip=1 / chroma_qp_offset=-3 / threads=22 / lookahead_threads=3 / sliced_threads=0 / nr=0 / decimate=1 / interlaced=0 / bluray_compat=0 / constrained_intra=0 / bframes=8 / b_pyramid=2 / b_adapt=2 / b_bias=0 / direct=3 / weightb=1 / open_gop=0 / weightp=2 / keyint=250 / keyint_min=23 / scenecut=40 / intra_refresh=0 / rc_lookahead=120 / rc=crf / mbtree=1 / crf=18.0 / qcomp=0.80 / qpmin=0 / qpmax=81 / qpstep=4 / ip_ratio=1.40 / aq=3:0.70
Default                                  : Yes
Forced                                   : No
Color range                              : Limited
Matrix coefficients                      : BT.709

Audio
ID                                       : 2
Format                                   : E-AC-3
Format/Info                              : Enhanced AC-3
Commercial name                          : Dolby Digital Plus
Codec ID                                 : A_EAC3
Duration                                 : 23 min 34 s
Bit rate mode                            : Constant
Bit rate                                 : 224 kb/s
Channel(s)                               : 2 channels
Channel layout                           : L R
Sampling rate                            : 48.0 kHz
Frame rate                               : 31.250 FPS (1536 SPF)
Compression mode                         : Lossy
Stream size                              : 37.8 MiB (16%)
Title                                    : 2.0 AC3
Language                                 : Japanese
Service kind                             : Complete Main
Default                                  : Yes
Forced                                   : No

Text
ID                                       : 3
Format                                   : ASS
Codec ID                                 : S_TEXT/ASS
Codec ID/Info                            : Advanced Sub Station Alpha
Duration                                 : 23 min 17 s
Bit rate                                 : 502 b/s
Count of elements                        : 1267
Compression mode                         : Lossless
Stream size                              : 85.7 KiB (0%)
Language                                 : English
Default                                  : Yes
Forced                                   : No

Menu
00:00:00.000                             : :Otome Game no Hametsu Flag Shika Nai Akuyaku Reijou ni Tensei Shiteshimatta X 03
00:22:04.907                             : :Ending
beta
Anime DDL+NZB mirror
Current Time: 26/01/2022 08:57



About/FAQs

Discord