[Chihiro] Mahou Shoujo ni Akogarete 10 [1080p Hi10P AC3][2B5E5A89].mkv


File Size935.0 MB (980,427,264 bytes)
DownloadClickNUpload | DailyUploads | DownloadGG | GoFile | KrakenFiles | MdiaLoad | Uppit
MultiUp: Part1
  • BdUpload
  • DownAce
  • Fichier
  • FileCloud
  • Filerio
  • FilesCdn
  • IndiShare
  • Kbagi
  • Turbobit
  • UpToBox
  • Uppit
, Part2
  • BdUpload
  • DownAce
  • Fichier
  • FileCloud
  • Filerio
  • FilesCdn
  • IndiShare
  • Kbagi
  • Turbobit
  • UpToBox
  • Uppit
HashesCRC32: 2B5E5A89, MD5: 817C10C6E8E0C8663A89E4817525A718, SHA1: 121371F7803A70922BAAEA3D3D9D195DEF9B58F4, SHA256: F98FD385DF4F2C3E086667167B9615A4BB76903CA1DD013C0C58EDD1DE36BD3D, ED2K: 28A0F8EC4A6F8234D2FB41FE3A7C2ED8
Screenshots
screenshotscreenshotscreenshotscreenshotscreenshot
SubtitlesAll Attachments | English [eng, ASS]
Additional Info
General
Unique ID                                : 6060013575736824111540072343745696047 (0x48F1DBCB859A65529F99F52C955912F)
Complete name                            : [Chihiro] Mahou Shoujo ni Akogarete 10 [1080p Hi10P AC3][2B5E5A89].mkv
Format                                   : Matroska
Format version                           : Version 4
File size                                : 935 MiB
Duration                                 : 23 min 40 s
Overall bit rate                         : 5 523 kb/s
Frame rate                               : 23.976 FPS
Movie name                               : Mahou Shoujo ni Akogarete 10
Encoded date                             : 2024-03-20 23:44:52 UTC
Writing application                      : mkvmerge v79.0 ('Funeral Pyres') 64-bit
Writing library                          : libebml v1.4.4 + libmatroska v1.7.1
Attachments                              : BubbleGum.ttf / Chewy.ttf / ClubTypeMercuriusMedium.ttf / Duepuntozero-Regular-Trial.ttf / NeutonReg-2010.9.28-1.51.ttf / Roboto-Medium.ttf / TT_Greco-B.TTF / Vesta-Bold.ttf

Video
ID                                       : 1
Format                                   : AVC
Format/Info                              : Advanced Video Codec
Format profile                           : High 10@L5
Format settings                          : CABAC / 5 Ref Frames
Format settings, CABAC                   : Yes
Format settings, Reference frames        : 5 frames
Codec ID                                 : V_MPEG4/ISO/AVC
Duration                                 : 23 min 40 s
Bit rate                                 : 5 224 kb/s
Width                                    : 1 920 pixels
Height                                   : 1 080 pixels
Display aspect ratio                     : 16:9
Frame rate mode                          : Constant
Frame rate                               : 23.976 (24000/1001) FPS
Color space                              : YUV
Chroma subsampling                       : 4:2:0
Bit depth                                : 10 bits
Scan type                                : Progressive
Bits/(Pixel*Frame)                       : 0.105
Stream size                              : 884 MiB (95%)
Title                                    : Mahou Shoujo ni Akogarete 10
Writing library                          : x264 core 160 r3000 33f9e14
Encoding settings                        : cabac=1 / ref=5 / deblock=1:-2:-2 / analyse=0x3:0x133 / me=umh / subme=10 / psy=1 / psy_rd=0.80:0.00 / mixed_ref=1 / me_range=24 / chroma_me=1 / trellis=2 / 8x8dct=1 / cqm=0 / deadzone=21,11 / fast_pskip=1 / chroma_qp_offset=-2 / threads=34 / lookahead_threads=5 / sliced_threads=0 / nr=0 / decimate=1 / interlaced=0 / bluray_compat=0 / constrained_intra=0 / bframes=8 / b_pyramid=2 / b_adapt=2 / b_bias=0 / direct=3 / weightb=1 / open_gop=0 / weightp=2 / keyint=250 / keyint_min=23 / scenecut=40 / intra_refresh=0 / rc=crf / mbtree=0 / crf=15.0 / qcomp=0.80 / qpmin=0 / qpmax=81 / qpstep=4 / ip_ratio=1.40 / pb_ratio=1.30 / aq=3:0.70
Default                                  : Yes
Forced                                   : No
Color range                              : Limited
Matrix coefficients                      : BT.709

Audio
ID                                       : 2
Format                                   : E-AC-3
Format/Info                              : Enhanced AC-3
Commercial name                          : Dolby Digital Plus
Codec ID                                 : A_EAC3
Duration                                 : 23 min 40 s
Bit rate mode                            : Constant
Bit rate                                 : 224 kb/s
Channel(s)                               : 2 channels
Channel layout                           : L R
Sampling rate                            : 48.0 kHz
Frame rate                               : 31.250 FPS (1536 SPF)
Compression mode                         : Lossy
Stream size                              : 37.9 MiB (4%)
Title                                    : 2.0 AC3
Language                                 : Japanese
Service kind                             : Complete Main
Default                                  : Yes
Forced                                   : No

Text
ID                                       : 3
Format                                   : ASS
Codec ID                                 : S_TEXT/ASS
Codec ID/Info                            : Advanced Sub Station Alpha
Duration                                 : 23 min 40 s
Bit rate                                 : 25.5 kb/s
Frame rate                               : 20.641 FPS
Count of elements                        : 29310
Compression mode                         : Lossless
Stream size                              : 4.32 MiB (0%)
Title                                    : English
Language                                 : English
Default                                  : Yes
Forced                                   : No

Menu
00:00:00.000                             : Prologue
00:00:58.058                             : Opening
00:02:28.023                             : Mahou Shoujo Akogarete 10
00:22:05.032                             : Ending
00:23:35.039                             : Preview
beta
Anime DDL+NZB mirror
Current Time: 14/06/2024 18:56



About/FAQs

Discord