File Size1.041 GB (1,117,842,530 bytes)
DownloadClickNUpload | GoFile | MdiaLoad
DailyUploads: Part1, Part2
DownloadGG: Part1, Part2
KrakenFiles: Part1, Part2
MultiUp: Part1
  • BdUpload
  • DownAce
  • Fichier
  • FileCloud
  • Filerio
  • FilesCdn
  • IndiShare
  • Kbagi
  • Turbobit
  • UpToBox
  • Uppit
, Part2
  • BdUpload
  • DownAce
  • Fichier
  • FileCloud
  • Filerio
  • FilesCdn
  • IndiShare
  • Kbagi
  • Turbobit
  • UpToBox
  • Uppit
, Part3
  • BdUpload
  • DownAce
  • Fichier
  • FileCloud
  • Filerio
  • FilesCdn
  • IndiShare
  • Kbagi
  • Turbobit
  • UpToBox
  • Uppit

Uppit: Part1, Part2
HashesCRC32: E8E1FE8B, MD5: 23307EF823FB70800CF89F21F53DC635, SHA1: 1C961D1C983C2572C475C6F35A5A4C9F322EDE66, SHA256: 63E7E6D76E655F0CA9015990BD5F5A300070297FE1037819466A4A0AA723BAAE, ED2K: 0F96F37EC495DC0AE4EE2DEEEC068D42
Screenshots
screenshotscreenshotscreenshotscreenshotscreenshot
SubtitlesAll Attachments | English [eng, ASS]
Additional Info
General
Unique ID                                : 15189565956093205567993040422560727270 (0xB6D676C0027CB12ADFBC072E3F200E6)
Complete name                            : [Chihiro] Mahou Shoujo ni Akogarete 09 [1080p Hi10P AC3][E8E1FE8B].mkv
Format                                   : Matroska
Format version                           : Version 4
File size                                : 1.04 GiB
Duration                                 : 23 min 40 s
Overall bit rate                         : 6 296 kb/s
Frame rate                               : 23.976 FPS
Movie name                               : Mahou Shoujo ni Akogarete 09
Encoded date                             : 2024-03-13 15:56:44 UTC
Writing application                      : mkvmerge v79.0 ('Funeral Pyres') 64-bit
Writing library                          : libebml v1.4.4 + libmatroska v1.7.1
Attachments                              : AoboshiOne-Regular.ttf / Awesome Possum Demo.otf / BubbleGum.ttf / Chewy.ttf / ClubTypeMercuriusMedium.ttf / EK03Serif-B01.ttf / FOT-ChiaroStd-B.otf / NeutonReg-2010.9.28-1.51.ttf / Roboto-Medium.ttf / Sangi Serif Font.ttf / Stratford Bold.ttf / TT_Greco-B.TTF / Vesta-Bold.ttf

Video
ID                                       : 1
Format                                   : AVC
Format/Info                              : Advanced Video Codec
Format profile                           : High 10@L5
Format settings                          : CABAC / 5 Ref Frames
Format settings, CABAC                   : Yes
Format settings, Reference frames        : 5 frames
Codec ID                                 : V_MPEG4/ISO/AVC
Duration                                 : 23 min 39 s
Bit rate                                 : 5 989 kb/s
Width                                    : 1 920 pixels
Height                                   : 1 080 pixels
Display aspect ratio                     : 16:9
Frame rate mode                          : Constant
Frame rate                               : 23.976 (24000/1001) FPS
Color space                              : YUV
Chroma subsampling                       : 4:2:0
Bit depth                                : 10 bits
Scan type                                : Progressive
Bits/(Pixel*Frame)                       : 0.120
Stream size                              : 1 014 MiB (95%)
Title                                    : Mahou Shoujo ni Akogarete 09
Writing library                          : x264 core 160 r3000 33f9e14
Encoding settings                        : cabac=1 / ref=5 / deblock=1:-2:-2 / analyse=0x3:0x133 / me=umh / subme=10 / psy=1 / psy_rd=0.80:0.00 / mixed_ref=1 / me_range=24 / chroma_me=1 / trellis=2 / 8x8dct=1 / cqm=0 / deadzone=21,11 / fast_pskip=1 / chroma_qp_offset=-2 / threads=34 / lookahead_threads=5 / sliced_threads=0 / nr=0 / decimate=1 / interlaced=0 / bluray_compat=0 / constrained_intra=0 / bframes=8 / b_pyramid=2 / b_adapt=2 / b_bias=0 / direct=3 / weightb=1 / open_gop=0 / weightp=2 / keyint=250 / keyint_min=23 / scenecut=40 / intra_refresh=0 / rc=crf / mbtree=0 / crf=15.0 / qcomp=0.80 / qpmin=0 / qpmax=81 / qpstep=4 / ip_ratio=1.40 / pb_ratio=1.30 / aq=3:0.70
Default                                  : Yes
Forced                                   : No
Color range                              : Limited
Matrix coefficients                      : BT.709

Audio
ID                                       : 2
Format                                   : E-AC-3
Format/Info                              : Enhanced AC-3
Commercial name                          : Dolby Digital Plus
Codec ID                                 : A_EAC3
Duration                                 : 23 min 40 s
Bit rate mode                            : Constant
Bit rate                                 : 224 kb/s
Channel(s)                               : 2 channels
Channel layout                           : L R
Sampling rate                            : 48.0 kHz
Frame rate                               : 31.250 FPS (1536 SPF)
Compression mode                         : Lossy
Stream size                              : 37.9 MiB (4%)
Title                                    : 2.0 AC3
Language                                 : Japanese
Service kind                             : Complete Main
Default                                  : Yes
Forced                                   : No

Text
ID                                       : 3
Format                                   : ASS
Codec ID                                 : S_TEXT/ASS
Codec ID/Info                            : Advanced Sub Station Alpha
Duration                                 : 23 min 39 s
Bit rate                                 : 22.3 kb/s
Frame rate                               : 20.452 FPS
Count of elements                        : 29028
Compression mode                         : Lossless
Stream size                              : 3.78 MiB (0%)
Title                                    : English
Language                                 : English
Default                                  : Yes
Forced                                   : No

Menu
00:00:00.000                             : Prologue
00:01:48.025                             : Opening
00:03:17.989                             : Mahou Shoujo Akogarete 09
00:22:04.949                             : Ending
00:23:34.955                             : Preview
beta
Anime DDL+NZB mirror
Current Time: 17/06/2024 23:09



About/FAQs

Discord