File Size1.008 GB (1,081,878,330 bytes)
DownloadClickNUpload | GoFile | MdiaLoad
DailyUploads: Part1, Part2
DownloadGG: Part1, Part2
KrakenFiles: Part1, Part2
MultiUp: Part1
  • BdUpload
  • DownAce
  • Fichier
  • FileCloud
  • Filerio
  • FilesCdn
  • IndiShare
  • Kbagi
  • Turbobit
  • UpToBox
  • Uppit
, Part2
  • BdUpload
  • DownAce
  • Fichier
  • FileCloud
  • Filerio
  • FilesCdn
  • IndiShare
  • Kbagi
  • Turbobit
  • UpToBox
  • Uppit
, Part3
  • BdUpload
  • DownAce
  • Fichier
  • FileCloud
  • Filerio
  • FilesCdn
  • IndiShare
  • Kbagi
  • Turbobit
  • UpToBox
  • Uppit

Uppit: Part1, Part2
HashesCRC32: 1E04763D, MD5: 5BA044CAA3E67D52A12F5F78D89E5D76, SHA1: 28F621DA964A584C12CA78BC4B83BF0B330C07DC, SHA256: 0A831E4ECAEE36B0CB58D2F86E2AC893118238C24857B7CAB7E702006F1E7A64, ED2K: A2BFED92039D598B944BF2B3B567EB20
Screenshots
screenshotscreenshotscreenshotscreenshotscreenshot
SubtitlesAll Attachments | English [eng, ASS]
Additional Info
General
Unique ID                                : 77131037613402070833009332837491405925 (0x3A06E5C270008AF15E10DAA0B58FF465)
Complete name                            : [Chihiro] Mahou Shoujo ni Akogarete 04 [1080p Hi10P AC3][1E04763D].mkv
Format                                   : Matroska
Format version                           : Version 4
File size                                : 1.01 GiB
Duration                                 : 23 min 40 s
Overall bit rate                         : 6 095 kb/s
Frame rate                               : 23.976 FPS
Movie name                               : Mahou Shoujo ni Akogarete 04
Encoded date                             : 2024-02-02 16:31:41 UTC
Writing application                      : mkvmerge v79.0 ('Funeral Pyres') 64-bit
Writing library                          : libebml v1.4.4 + libmatroska v1.7.1
Attachments                              : AndBasR.ttf / BubbleGum.ttf / Chewy.ttf / ClubTypeMercuriusMedium.ttf / Figtree-SemiBold.ttf / FOT-ChiaroStd-B.otf / FOT-UDMarugo_LargePr6-M.otf / Kurale-Regular.ttf / My_handwriting.ttf / NeutonReg-2010.9.28-1.51.ttf / NotoSans-Bold.ttf / NotoSans-SemiBold.ttf / Roboto-Medium.ttf / TT_Greco-B.TTF / Vesta-Bold.ttf

Video
ID                                       : 1
Format                                   : AVC
Format/Info                              : Advanced Video Codec
Format profile                           : High 10@L5
Format settings                          : CABAC / 5 Ref Frames
Format settings, CABAC                   : Yes
Format settings, Reference frames        : 5 frames
Codec ID                                 : V_MPEG4/ISO/AVC
Duration                                 : 23 min 40 s
Bit rate                                 : 5 567 kb/s
Width                                    : 1 920 pixels
Height                                   : 1 080 pixels
Display aspect ratio                     : 16:9
Frame rate mode                          : Constant
Frame rate                               : 23.976 (24000/1001) FPS
Color space                              : YUV
Chroma subsampling                       : 4:2:0
Bit depth                                : 10 bits
Scan type                                : Progressive
Bits/(Pixel*Frame)                       : 0.112
Stream size                              : 942 MiB (91%)
Title                                    : Mahou Shoujo ni Akogarete 04
Writing library                          : x264 core 160 r3000 33f9e14
Encoding settings                        : cabac=1 / ref=5 / deblock=1:-2:-2 / analyse=0x3:0x133 / me=umh / subme=10 / psy=1 / psy_rd=0.80:0.00 / mixed_ref=1 / me_range=24 / chroma_me=1 / trellis=2 / 8x8dct=1 / cqm=0 / deadzone=21,11 / fast_pskip=1 / chroma_qp_offset=-2 / threads=34 / lookahead_threads=5 / sliced_threads=0 / nr=0 / decimate=1 / interlaced=0 / bluray_compat=0 / constrained_intra=0 / bframes=8 / b_pyramid=2 / b_adapt=2 / b_bias=0 / direct=3 / weightb=1 / open_gop=0 / weightp=2 / keyint=250 / keyint_min=23 / scenecut=40 / intra_refresh=0 / rc=crf / mbtree=0 / crf=15.0 / qcomp=0.80 / qpmin=0 / qpmax=81 / qpstep=4 / ip_ratio=1.40 / pb_ratio=1.30 / aq=3:0.70
Default                                  : Yes
Forced                                   : No
Color range                              : Limited
Matrix coefficients                      : BT.709

Audio
ID                                       : 2
Format                                   : E-AC-3
Format/Info                              : Enhanced AC-3
Commercial name                          : Dolby Digital Plus
Codec ID                                 : A_EAC3
Duration                                 : 23 min 40 s
Bit rate mode                            : Constant
Bit rate                                 : 224 kb/s
Channel(s)                               : 2 channels
Channel layout                           : L R
Sampling rate                            : 48.0 kHz
Frame rate                               : 31.250 FPS (1536 SPF)
Compression mode                         : Lossy
Stream size                              : 37.9 MiB (4%)
Title                                    : 2.0 AC3
Language                                 : Japanese
Service kind                             : Complete Main
Default                                  : Yes
Forced                                   : No

Text
ID                                       : 3
Format                                   : ASS
Codec ID                                 : S_TEXT/ASS
Codec ID/Info                            : Advanced Sub Station Alpha
Duration                                 : 23 min 5 s
Bit rate                                 : 154 kb/s
Frame rate                               : 24.440 FPS
Count of elements                        : 33864
Compression mode                         : Lossless
Stream size                              : 25.4 MiB (2%)
Title                                    : English
Language                                 : English
Default                                  : Yes
Forced                                   : No

Menu
00:00:00.000                             : Prologue
00:01:12.990                             : Opening
00:02:43.038                             : Mahou Shoujo Akogarete 04
00:22:05.032                             : Ending
00:23:35.039                             : Preview
beta
Anime DDL+NZB mirror
Current Time: 20/07/2024 22:00



About/FAQs

Discord