File Size0.980 GB (1,051,826,795 bytes)
DownloadClickNUpload | Jheberg
MultiUp: Part1
  • BdUpload
  • DownAce
  • Fichier
  • FileCloud
  • Filerio
  • FilesCdn
  • IndiShare
  • Kbagi
  • Turbobit
  • UpToBox
  • Uppit
, Part2
  • BdUpload
  • DownAce
  • Fichier
  • FileCloud
  • Filerio
  • FilesCdn
  • IndiShare
  • Kbagi
  • Turbobit
  • UpToBox
  • Uppit
, Part3
  • BdUpload
  • DownAce
  • Fichier
  • FileCloud
  • Filerio
  • FilesCdn
  • IndiShare
  • Kbagi
  • Turbobit
  • UpToBox
  • Uppit

Sendspace: Part1, Part2, Part3, Part4
SolidFiles: Part1, Part2, Part3
ZippyShare: Part1, Part2, Part3
HashesCRC32: 0E700A79, MD5: D39FADE2528F3E28DCF0DB43E3B6D6F4, SHA1: B66045E06B5E3BF00BF496953B7696CA8A2023AF, SHA256: 965320A74259CFB4F116181E3141CC746FCA3EBAC2012A9388E46923714C6A88, ED2K: AD0C6DC2A426AA0AD29BC328035AC24F
Screenshots
screenshotscreenshotscreenshotscreenshotscreenshot
SubtitlesAll Attachments | Deutsch [ger, SRT], English [eng, SRT], Español (España) [spa, SRT], Español (Latinoamérica) [spa, SRT], Français [fre, SRT], Italiano [ita, SRT], Português [por, SRT], 中文(繁體) [chi, SRT], 한국어 [kor, SRT]
Additional Info
General
Unique ID                                : 102984755605942641555668178912330417832 (0x4D7A247880137C2A3254281E064886A8)
Complete name                            : [BYYM][Mugen no Juunin -Immortal-][2019][19][WEB-DL 1080p AVC DDP JAP][Multiple Subtitle].mkv
Format                                   : Matroska
Format version                           : Version 4
File size                                : 1 003 MiB
Duration                                 : 23 min 54 s
Overall bit rate                         : 5 864 kb/s
Encoded date                             : UTC 2020-02-13 17:18:27
Writing application                      : mkvmerge v40.0.0 ('Old Town Road + Pony') 64-bit
Writing library                          : libebml v1.3.9 + libmatroska v1.5.2

Video
ID                                       : 1
Format                                   : AVC
Format/Info                              : Advanced Video Codec
Format profile                           : High@L4
Format settings                          : CABAC / 4 Ref Frames
Format settings, CABAC                   : Yes
Format settings, ReFrames                : 4 frames
Codec ID                                 : V_MPEG4/ISO/AVC
Duration                                 : 23 min 54 s
Bit rate mode                            : Constant
Bit rate                                 : 5 637 kb/s
Nominal bit rate                         : 10 000 kb/s
Width                                    : 1 920 pixels
Height                                   : 1 080 pixels
Display aspect ratio                     : 16:9
Frame rate mode                          : Constant
Frame rate                               : 23.976 (24000/1001) FPS
Color space                              : YUV
Chroma subsampling                       : 4:2:0
Bit depth                                : 8 bits
Scan type                                : Progressive
Bits/(Pixel*Frame)                       : 0.113
Stream size                              : 964 MiB (96%)
Default                                  : Yes
Forced                                   : No
Color range                              : Limited
Color primaries                          : BT.709
Transfer characteristics                 : BT.709
Matrix coefficients                      : BT.709

Audio
ID                                       : 2
Format                                   : E-AC-3
Format/Info                              : Enhanced AC-3
Commercial name                          : Dolby Digital Plus
Codec ID                                 : A_EAC3
Duration                                 : 23 min 54 s
Bit rate mode                            : Constant
Bit rate                                 : 224 kb/s
Channel(s)                               : 2 channels
Channel layout                           : L R
Sampling rate                            : 48.0 kHz
Frame rate                               : 31.250 FPS (1536 SPF)
Compression mode                         : Lossy
Stream size                              : 38.3 MiB (4%)
Language                                 : Japanese
Service kind                             : Complete Main
Default                                  : Yes
Forced                                   : No

Text #1
ID                                       : 3
Format                                   : UTF-8
Codec ID                                 : S_TEXT/UTF8
Codec ID/Info                            : UTF-8 Plain Text
Duration                                 : 23 min 32 s
Bit rate                                 : 53 b/s
Count of elements                        : 257
Stream size                              : 9.18 KiB (0%)
Title                                    : Deutsch
Language                                 : German
Default                                  : Yes
Forced                                   : No

Text #2
ID                                       : 4
Format                                   : UTF-8
Codec ID                                 : S_TEXT/UTF8
Codec ID/Info                            : UTF-8 Plain Text
Duration                                 : 22 min 24 s
Bit rate                                 : 59 b/s
Count of elements                        : 263
Stream size                              : 9.82 KiB (0%)
Title                                    : English
Language                                 : English
Default                                  : No
Forced                                   : No

Text #3
ID                                       : 5
Format                                   : UTF-8
Codec ID                                 : S_TEXT/UTF8
Codec ID/Info                            : UTF-8 Plain Text
Duration                                 : 23 min 32 s
Bit rate                                 : 56 b/s
Count of elements                        : 265
Stream size                              : 9.78 KiB (0%)
Title                                    : Español (España)
Language                                 : Spanish
Default                                  : No
Forced                                   : No

Text #4
ID                                       : 6
Format                                   : UTF-8
Codec ID                                 : S_TEXT/UTF8
Codec ID/Info                            : UTF-8 Plain Text
Duration                                 : 23 min 32 s
Bit rate                                 : 56 b/s
Count of elements                        : 265
Stream size                              : 9.78 KiB (0%)
Title                                    : Español (Latinoamérica)
Language                                 : Spanish
Default                                  : No
Forced                                   : No

Text #5
ID                                       : 7
Format                                   : UTF-8
Codec ID                                 : S_TEXT/UTF8
Codec ID/Info                            : UTF-8 Plain Text
Duration                                 : 23 min 32 s
Bit rate                                 : 56 b/s
Count of elements                        : 267
Stream size                              : 9.72 KiB (0%)
Title                                    : Français
Language                                 : French
Default                                  : No
Forced                                   : No

Text #6
ID                                       : 8
Format                                   : UTF-8
Codec ID                                 : S_TEXT/UTF8
Codec ID/Info                            : UTF-8 Plain Text
Duration                                 : 23 min 32 s
Bit rate                                 : 59 b/s
Count of elements                        : 265
Stream size                              : 10.3 KiB (0%)
Title                                    : Italiano
Language                                 : Italian
Default                                  : No
Forced                                   : No

Text #7
ID                                       : 9
Format                                   : UTF-8
Codec ID                                 : S_TEXT/UTF8
Codec ID/Info                            : UTF-8 Plain Text
Duration                                 : 23 min 32 s
Bit rate                                 : 58 b/s
Count of elements                        : 266
Stream size                              : 10.0 KiB (0%)
Title                                    : Português
Language                                 : Portuguese
Default                                  : No
Forced                                   : No

Text #8
ID                                       : 10
Format                                   : UTF-8
Codec ID                                 : S_TEXT/UTF8
Codec ID/Info                            : UTF-8 Plain Text
Duration                                 : 23 min 32 s
Bit rate                                 : 46 b/s
Count of elements                        : 268
Stream size                              : 7.95 KiB (0%)
Title                                    : 中文(繁體)
Language                                 : Chinese
Default                                  : No
Forced                                   : No

Text #9
ID                                       : 11
Format                                   : UTF-8
Codec ID                                 : S_TEXT/UTF8
Codec ID/Info                            : UTF-8 Plain Text
Duration                                 : 23 min 32 s
Bit rate                                 : 61 b/s
Count of elements                        : 266
Stream size                              : 10.6 KiB (0%)
Title                                    : 한국어
Language                                 : Korean
Default                                  : No
Forced                                   : No
beta
Anime DDL+NZB mirror
Current Time: 09/04/2020 11:03



About/FAQs