File Size291.2 MB (305,395,364 bytes)
DownloadGo4Up | Jheberg | MultiUp | Sendspace | SolidFiles
ShareBeast: Part1, Part2
Encrypted DownloadDirect
Password:
HashesCRC32: D46DEAEC, MD5: CF716DE669A7D634679370CECD5B116F, SHA1: 1C262D14AAD6FB6ED034ACAB64B8DF3533D3112B, SHA256: 95B53A63B705232932D4BAEF88DB61AF10A7241E2994931655D73253AC0F913C, ED2K: 0CA8B5FDC9F59040650A9EC2CC733977
Screenshots
screenshotscreenshotscreenshotscreenshotscreenshot
SubtitlesAll Attachments | und [ASS]
Additional Info
General
Unique ID                                : 200207933889797874674980273021426605918 (0x969EA53F5F2B131F873C374871901F5E)
Complete name                            : [Burger] Download - Namu Amida Butsu wa Ai no Uta(LQ VHS-rip).mkv
Format                                   : Matroska
Format version                           : Version 4 / Version 2
File size                                : 291 MiB
Duration                                 : 47mn 14s
Overall bit rate                         : 862 Kbps
Encoded date                             : UTC 2015-07-18 14:21:49
Writing application                      : mkvmerge v7.6.0 ('Garden of Dreams') 32bit built on Feb  8 2015 12:51:39
Writing library                          : libebml v1.3.1 + libmatroska v1.4.2
DURATION                                 : 00:44:14.420000000
NUMBER_OF_FRAMES                         : 357
NUMBER_OF_BYTES                          : 22114
_STATISTICS_WRITING_APP                  : mkvmerge v7.6.0 ('Garden of Dreams') 32bit built on Feb  8 2015 12:51:39
_STATISTICS_WRITING_DATE_UTC             : 2015-07-18 14:21:49
_STATISTICS_TAGS                         : BPS DURATION NUMBER_OF_FRAMES NUMBER_OF_BYTES

Video
ID                                       : 1
Format                                   : AVC
Format/Info                              : Advanced Video Codec
Format profile                           : High@L3.0
Format settings, CABAC                   : Yes
Format settings, ReFrames                : 6 frames
Codec ID                                 : V_MPEG4/ISO/AVC
Duration                                 : 47mn 14s
Bit rate                                 : 750 Kbps
Width                                    : 626 pixels
Height                                   : 474 pixels
Display aspect ratio                     : 4:3
Frame rate mode                          : Constant
Frame rate                               : 23.976 fps
Color space                              : YUV
Chroma subsampling                       : 4:2:0
Bit depth                                : 8 bits
Scan type                                : Progressive
Bits/(Pixel*Frame)                       : 0.105
Stream size                              : 248 MiB (85%)
Writing library                          : x264 core 102 r1666bm d058f37
Encoding settings                        : cabac=1 / ref=6 / deblock=1:1:1 / analyse=0x3:0x113 / me=hex / subme=7 / psy=1 / psy_rd=0.40:0.00 / mixed_ref=1 / me_range=16 / chroma_me=1 / trellis=1 / 8x8dct=1 / cqm=0 / deadzone=21,11 / fast_pskip=1 / chroma_qp_offset=-2 / threads=3 / sliced_threads=0 / nr=0 / decimate=1 / interlaced=0 / constrained_intra=0 / bframes=5 / b_pyramid=2 / b_adapt=1 / b_bias=0 / direct=1 / weightb=1 / open_gop=0 / weightp=2 / keyint=250 / keyint_min=25 / scenecut=40 / intra_refresh=0 / rc_lookahead=40 / rc=abr / mbtree=1 / bitrate=750 / ratetol=1.0 / qcomp=0.60 / qpmin=10 / qpmax=51 / qpstep=4 / ip_ratio=1.40 / aq=1:0.60
Default                                  : Yes
Forced                                   : No

Audio
ID                                       : 2
Format                                   : MPEG Audio
Format version                           : Version 1
Format profile                           : Layer 3
Codec ID                                 : A_MPEG/L3
Codec ID/Hint                            : MP3
Duration                                 : 47mn 14s
Bit rate mode                            : Constant
Bit rate                                 : 112 Kbps
Channel(s)                               : 2 channels
Sampling rate                            : 44.1 KHz
Compression mode                         : Lossy
Delay relative to video                  : 11ms
Stream size                              : 37.8 MiB (13%)
Default                                  : Yes
Forced                                   : No

Text
ID                                       : 3
Format                                   : ASS
Codec ID                                 : S_TEXT/ASS
Codec ID/Info                            : Advanced Sub Station Alpha
Compression mode                         : Lossless
Default                                  : Yes
Forced                                   : No
beta
Anime DDL+NZB mirror
Current Time: 17/11/2017 17:41



About/FAQs