File Size65.56 MB (68,740,907 bytes)
DownloadClickNUpload | Jheberg | MultiUp
  • BdUpload
  • DownAce
  • Fichier
  • FileCloud
  • Filerio
  • FilesCdn
  • IndiShare
  • Kbagi
  • Solidfiles
  • Turbobit
  • UpToBox
  • Uppit
| OpenLoad | Sendspace | ZippyShare
HashesCRC32: EA31CD91, MD5: 5BB0E082A5F29691A327290BC49B858C, SHA1: BD38412F0BE4735818D179A437C90B4720FE24A1, SHA256: DE4BE4D87C432813F936E8E52F20471ED4F2AD8231CDF1CB430EE48C5434261E, ED2K: 2D2909348AECE87EDA279FD72C48771D
Screenshots
screenshotscreenshotscreenshot
Additional Info
General
Unique ID                                : 212905179842852853403064724925645225531 (0xA02C0BCE5A6B8B2EA49A4DAD0ABE7E3B)
Complete name                            : Episode Previews.mkv
Format                                   : Matroska
Format version                           : Version 2
File size                                : 65.6 MiB
Duration                                 : 2 min 40 s
Overall bit rate                         : 3 418 kb/s
Encoded date                             : UTC 2019-04-16 19:31:41
Writing application                      : mkvmerge v8.5.2 ('Crosses') 32bit
Writing library                          : libebml v1.3.3 + libmatroska v1.4.4

Video
ID                                       : 1
Format                                   : AVC
Format/Info                              : Advanced Video Codec
Format profile                           : High 10@L3.1
Format settings                          : CABAC / 4 Ref Frames
Format settings, CABAC                   : Yes
Format settings, ReFrames                : 4 frames
Codec ID                                 : V_MPEG4/ISO/AVC
Duration                                 : 2 min 40 s
Bit rate                                 : 3 105 kb/s
Width                                    : 1 280 pixels
Height                                   : 720 pixels
Display aspect ratio                     : 16:9
Frame rate mode                          : Constant
Frame rate                               : 29.970 (30000/1001) FPS
Color space                              : YUV
Chroma subsampling                       : 4:2:0
Bit depth                                : 10 bits
Scan type                                : Progressive
Bits/(Pixel*Frame)                       : 0.112
Stream size                              : 59.6 MiB (91%)
Writing library                          : x264 core 148 r2638 7599210
Encoding settings                        : cabac=1 / ref=3 / deblock=1:1:-1 / analyse=0x3:0x113 / me=hex / subme=7 / psy=1 / psy_rd=1.00:0.00 / mixed_ref=1 / me_range=16 / chroma_me=1 / trellis=1 / 8x8dct=1 / cqm=0 / deadzone=21,11 / fast_pskip=1 / chroma_qp_offset=-2 / threads=6 / lookahead_threads=1 / sliced_threads=0 / nr=0 / decimate=1 / interlaced=0 / bluray_compat=0 / constrained_intra=0 / bframes=3 / b_pyramid=2 / b_adapt=1 / b_bias=0 / direct=1 / weightb=1 / open_gop=0 / weightp=2 / keyint=300 / keyint_min=29 / scenecut=40 / intra_refresh=0 / rc_lookahead=40 / rc=crf / mbtree=1 / crf=15.0 / qcomp=0.60 / qpmin=0 / qpmax=81 / qpstep=4 / ip_ratio=1.40 / aq=1:1.00
Default                                  : Yes
Forced                                   : No

Audio
ID                                       : 2
Format                                   : AAC LC
Format/Info                              : Advanced Audio Codec Low Complexity
Codec ID                                 : A_AAC-2
Duration                                 : 2 min 40 s
Bit rate                                 : 310 kb/s
Channel(s)                               : 2 channels
Channel layout                           : L R
Sampling rate                            : 48.0 kHz
Frame rate                               : 46.875 FPS (1024 SPF)
Compression mode                         : Lossy
Delay relative to video                  : 9 ms
Stream size                              : 5.94 MiB (9%)
Language                                 : Japanese
Default                                  : Yes
Forced                                   : No

Menu
00:00:00.000                             : en:Chapter 1
00:00:16.016                             : en:Chapter 2
00:00:31.398                             : en:Chapter 3
00:00:46.513                             : en:Chapter 4
00:01:01.561                             : en:Chapter 5
00:01:17.577                             : en:Chapter 6
00:01:32.692                             : en:Chapter 7
00:01:50.710                             : en:Chapter 8
00:02:06.826                             : en:Chapter 9
00:02:21.941                             : en:Chapter 10

Other Files in this Torrent
Bluray Extras/Episode Previews.mkv
beta
Anime DDL+NZB mirror
Current Time: 30/11/2020 04:39



About/FAQs