File Size353.9 MB (371,098,682 bytes)
DownloadAnonFiles | ClickNUpload | DownloadGG | KrakenFiles | MultiUp
  • BdUpload
  • DownAce
  • Fichier
  • FileCloud
  • Filerio
  • FilesCdn
  • IndiShare
  • Kbagi
  • Turbobit
  • UpToBox
  • Uppit
| ZippyShare
HashesCRC32: 8353B073, MD5: 98542FA70DAEB6BC6B4D944CCF6F965D, SHA1: 75AC56F3B189BB590E2B1022F7E87314DFC25EAC, SHA256: F262E75F2160A0C326CA9FBBCCFAF429663BB63B3D0CFC020ACC40702D1D4DA5, ED2K: C856F66AD13B199AEBCA8EE1ADAE3F82
Screenshots
screenshotscreenshotscreenshotscreenshotscreenshot
SubtitlesAll Attachments | eng [ASS]
Additional Info
General
Unique ID                                : 72086854266590573803732028704119348391 (0x363B6C51C7CB3A36A3FC41E353385CA7)
Complete name                            : [BlueSilverSect] Douluo Dalu - 207v1 (1080p) [x264].mkv
Format                                   : Matroska
Format version                           : Version 4
File size                                : 354 MiB
Duration                                 : 16 min 30 s
Overall bit rate                         : 2 998 kb/s
Encoded date                             : UTC 2022-05-07 06:42:16
Writing application                      : mkvmerge v67.0.0 ('Under Stars') 64-bit
Writing library                          : libebml v1.4.2 + libmatroska v1.6.4

Video
ID                                       : 1
Format                                   : AVC
Format/Info                              : Advanced Video Codec
Format profile                           : High@L5
Format settings                          : CABAC / 6 Ref Frames
Format settings, CABAC                   : Yes
Format settings, Reference frames        : 6 frames
Codec ID                                 : V_MPEG4/ISO/AVC
Duration                                 : 16 min 30 s
Bit rate                                 : 2 902 kb/s
Width                                    : 1 920 pixels
Height                                   : 1 080 pixels
Display aspect ratio                     : 16:9
Frame rate mode                          : Constant
Frame rate                               : 30.000 FPS
Color space                              : YUV
Chroma subsampling                       : 4:2:0
Bit depth                                : 8 bits
Scan type                                : Progressive
Bits/(Pixel*Frame)                       : 0.047
Stream size                              : 343 MiB (97%)
Default                                  : Yes
Forced                                   : No
Color range                              : Limited
Color primaries                          : BT.709
Transfer characteristics                 : BT.709
Matrix coefficients                      : BT.709

Audio
ID                                       : 2
Format                                   : AAC LC
Format/Info                              : Advanced Audio Codec Low Complexity
Codec ID                                 : A_AAC-2
Duration                                 : 16 min 30 s
Bit rate                                 : 93.4 kb/s
Channel(s)                               : 2 channels
Channel layout                           : L R
Sampling rate                            : 48.0 kHz
Frame rate                               : 46.875 FPS (1024 SPF)
Compression mode                         : Lossy
Delay relative to video                  : -42 ms
Stream size                              : 11.0 MiB (3%)
Language                                 : Chinese
Default                                  : Yes
Forced                                   : No

Text
ID                                       : 3
Format                                   : ASS
Codec ID                                 : S_TEXT/ASS
Codec ID/Info                            : Advanced Sub Station Alpha
Duration                                 : 15 min 56 s
Bit rate                                 : 127 b/s
Count of elements                        : 234
Compression mode                         : Lossless
Stream size                              : 14.9 KiB (0%)
Language                                 : English
Default                                  : Yes
Forced                                   : No
beta
Anime DDL+NZB mirror
Current Time: 06/07/2022 13:12



About/FAQs

Discord